˂
˃
 

Gr@nd ®

Jins:
Yigit
Staj:
1 yil 2 oy
Xabarlar:
158

Qayerdan: Jizzax Forish

Taqiq:

- -Qora Pantera- -Chiqqan yili: 2018
Davlat: AQSH-Janr: Fantastika, Jangari, Sarguzasht
Davomiyligi: 02:14:33-Tarjima: Professional (dublyaj qilingan) MY5 O'zbek tilida-Rejissyor: Rayan Ko'gler-Rollarda: Chedvik Bozeman, Maykl B. Jordan, Lupita Niongo, Daniy Jeksay Gurira, Martin Friman, Daniel Kaluya, Letisha Rayt, Vinston Dyuk, Sterling K. Braun, Anjela Bassett-Tavsif: Bir qarashda, Vakida yovvoyi afrikaning odatiy hududi ekanligi haqida qaror qabul qilishingiz mumkin, lekin bu emas. Bu erda cho'llarning chuqurligida titrashni o'zlashtira oladigan noyob metall konlari mavjud. Ko'pchilik uning yo'lidan borib, o'limga olib kelgan narsalarni buzishga harakat qildilar, lekin har safar savannaning sirli ruhi - Qora Pantera - mazlumlarni himoya qilish uchun ko'tarildi.- -Videoning sifati: BDRip
Video format: MKV-Video: MPEG4 Video (H264) 1920x808 23.976fps
Audio: MP3 48000Hz / 2ch / 128kbps Uzb
-

Media Info

General
Unique ID : 231213730587006903532575815349142881412 (0xADF2250CF75F14DF9ED7E544BE110484)
Format : Matroska
Format version : Version 4 / Version 2
File size : 3.86 GiB
Duration : 2h 14mn
Overall bit rate : 4 109 Kbps
Movie name : Xusan_Gr@nd
Encoded date : UTC 2018-05-05 14:53:49
Writing application : mkvmerge v6.8.0 ('Theme for Great Cities') 64bit built on Mar 2 2014 21:34:26
Writing library : libebml v1.3.0 + libmatroska v1.4.1
Video
ID : 1
Format : AVC
Format/Info : Advanced Video Codec
Format profile : High@L4.1
Format settings, CABAC : Yes
Format settings, ReFrames : 4 frames
Codec ID : V_MPEG4/ISO/AVC
Duration : 2h 14mn
Bit rate : 4 000 Kbps
Width : 1 920 pixels
Height : 808 pixels
Display aspect ratio : 2.40:1
Frame rate : 23.976 fps
Color space : YUV
Chroma subsampling : 4:2:0
Bit depth : 8 bits
Scan type : Progressive
Bits/(Pixel*Frame) : 0.108
Stream size : 3.67 GiB (95%)
Writing library : x264 core 148 r2708 86b7198
Encoding settings : cabac=1 / ref=1 / deblock=1:0:0 / analyse=0x3:0x113 / me=hex / subme=2 / psy=1 / psy_rd=1.00:0.00 / mixed_ref=0 / me_range=16 / chroma_me=1 / trellis=0 / 8x8dct=1 / cqm=0 / deadzone=21,11 / fast_pskip=1 / chroma_qp_offset=0 / threads=18 / lookahead_threads=6 / sliced_threads=0 / nr=0 / decimate=1 / interlaced=0 / bluray_compat=0 / constrained_intra=0 / bframes=3 / b_pyramid=2 / b_adapt=1 / b_bias=0 / direct=1 / weightb=1 / open_gop=0 / weightp=1 / keyint=240 / keyint_min=24 / scenecut=40 / intra_refresh=0 / rc_lookahead=10 / rc=abr / mbtree=1 / bitrate=4000 / ratetol=1.0 / qcomp=0.60 / qpmin=0 / qpmax=69 / qpstep=4 / vbv_maxrate=62500 / vbv_bufsize=78125 / nal_hrd=none / filler=0 / ip_ratio=1.40 / aq=1:1.00
Default : Yes
Forced : No
Color primaries : BT.709-5, BT.1361, IEC 61966-2-4, SMPTE RP177
Transfer characteristics : BT.709-5, BT.1361
Matrix coefficients : BT.709-5, BT.1361, IEC 61966-2-4 709, SMPTE RP177
Audio
ID : 2
Format : MPEG Audio
Format version : Version 1
Format profile : Layer 3
Mode : Joint stereo
Mode extension : MS Stereo
Codec ID : A_MPEG/L3
Codec ID/Hint : MP3
Duration : 2h 14mn
Bit rate mode : Constant
Bit rate : 128 Kbps
Channel(s) : 2 channels
Sampling rate : 44.1 KHz
Compression mode : Lossy
Delay relative to video : -5ms
Stream size : 123 MiB (3%)
Title : Xusan_Gr@nd
Writing library : LAME3.98.2
Language : Uzbek
Default : Yes
Forced : Yes
--
Profil ShX

Gr@nd ®

Jins:
Yigit
Staj:
1 yil 2 oy
Xabarlar:
158

Qayerdan: Jizzax Forish

Taqiq:

Raxmat aytishni unutmang

Mavzu yaratish 05-May-2018 21:01 (2 daqiqa o‘tgach)

Iqitibos

Profil ShX

oybekofficial

Jins:
Yigit
Staj:
7 oy 29 kun
Xabarlar:
17
Taqiq:

Malades Gr@nd har doimgidek rahmatni zo'ri mana mendan.

Mavzu yaratish 05-May-2018 21:18 (17 daqiqa o‘tgach)

Iqitibos

Profil ShX

MRLG

Jins:
Yigit
Staj:
1 yil 3 oy
Xabarlar:
526
Taqiq:

Gr@nd, salgina shoshilibsizda. sevimli tvdan berganini ham birgalikda tayyorlasangiz zo'r bo'lardi. 2 tasi birda. shunisiga ham katta rahmat.

Mavzu yaratish 05-May-2018 22:01 (42 daqiqa o‘tgach)

Iqitibos

Profil ShX

Gr@nd ®

Jins:
Yigit
Staj:
1 yil 2 oy
Xabarlar:
158

Qayerdan: Jizzax Forish

Taqiq:

MRLG, Xudo xoxlasa siz aytganday xam qilamiz

Mavzu yaratish 05-May-2018 22:12 (11 daqiqa o‘tgach)

Iqitibos

Profil ShX

Striker

Jins:
Yigit
Staj:
1 yil 3 oy
Xabarlar:
37
Taqiq:

Barcha treker ahli nomidan rahmat aytamiz. Ijodingizga omad.

Mavzu yaratish 05-May-2018 22:22 (9 daqiqa o‘tgach)

Iqitibos

Profil ShX

N.U.R.I.K.B.E.K

Jins:
Yigit
Staj:
1 yil 1 oy
Xabarlar:
339

Qayerdan: Jizzax. Paxtakor

Taqiq:

Mavzu yaratish 05-May-2018 22:35 (13 daqiqa o‘tgach)

Iqitibos

Profil ShX

UmarShoh

Jins:
Yigit
Staj:
9 oy 5 kun
Xabarlar:
371
Taqiq:

Gr@nd, oka pashshani ham reliz qilib bering !

Mavzu yaratish 06-May-2018 07:04 (8 soat o‘tgach)

Iqitibos

Profil ShX

Gr@nd ®

Jins:
Yigit
Staj:
1 yil 2 oy
Xabarlar:
158

Qayerdan: Jizzax Forish

Taqiq:

UmarShoh, Shoshmang qo'yaman

Mavzu yaratish 06-May-2018 09:10 (2 soat 6 daqiqa o‘tgach)

Iqitibos

Profil ShX

SobirR

Jins:
Yigit
Staj:
8 oy 21 kun
Xabarlar:
222

Qayerdan: Navoiy. Uchquduq

Taqiq:

Film maxsus effektlarga boy hamda Afrikaning bazi udumlarini o'z ichiga olgan. Lekin shunday bo'lsa ham film men kutganday bo'lmabdi. Marvelning oxirgi yaxshi filmi Dr Strenj bo'lib qolmoqda. Qasoskorlarni hali ko'rganim yo'q balki u ham zo'rdir.

Mavzu yaratish 06-May-2018 10:56 (1 soat 45 daqiqa o‘tgach)

Iqitibos

Profil ShX

xasan6764

Jins:
Ko‘rsatilmagan
Staj:
1 yil 2 oy
Xabarlar:
23
Taqiq:

SobirR, Siz o'skirda ishlamaysizmi mabodo ((((

Mavzu yaratish 06-May-2018 11:05 (9 daqiqa o‘tgach)

Iqitibos

Profil ShX

SobirR

Jins:
Yigit
Staj:
8 oy 21 kun
Xabarlar:
222

Qayerdan: Navoiy. Uchquduq

Taqiq:

xasan6764, o'skirga ishlamayman

Mavzu yaratish 06-May-2018 11:14 (9 daqiqa o‘tgach)

Iqitibos

Profil ShX

Gr@nd ®

Jins:
Yigit
Staj:
1 yil 2 oy
Xabarlar:
158

Qayerdan: Jizzax Forish

Taqiq:

SobirR, Sizga yoqmasa boshqalarga yoqar

Mavzu yaratish 06-May-2018 11:22 (8 daqiqa o‘tgach)

Iqitibos

Profil ShX

SobirR

Jins:
Yigit
Staj:
8 oy 21 kun
Xabarlar:
222

Qayerdan: Navoiy. Uchquduq

Taqiq:

3460SobirR, Sizga yoqmasa boshqalarga yoqar
Yo'q kino menga yoqmadi demayapman sal tushunarsiz joylari bor. Masalan Maymun odamlar Panterani taxtdan ag'darib qirol bo'lardi. Umuman olganda kinoni yana 2ta qismi chiqadi menimcha. Fantastik to'rtlik va sarvigolava pantera bilan bir jamoa bo'lishadi Xullas komekslarida shunaqa. Bunaqa kinolar 3soatdan kam bo'lmasligi kerak.

Mavzu yaratish 06-May-2018 13:30 (2 soat 7 daqiqa o‘tgach)

Iqitibos

Profil ShX

UmarShoh

Jins:
Yigit
Staj:
9 oy 5 kun
Xabarlar:
371
Taqiq:

Masalan menga yoqdi zo'r ishlangan bu film ham men keyingi qismini kutyabman Qora Panterani !

Mavzu yaratish 06-May-2018 14:39 (1 soat 8 daqiqa o‘tgach)

Iqitibos

Profil ShX
Xabarlarni ko‘rsatish:    

Hozirgi vaqt: 11-Dek 02:54

Vaqtlar farqi: UTC + 5



Siz mavzu yaratishingiz mumkin emas
Siz xabarlarga javob qaytarishingiz mumkin emas
Siz o‘z xabarlaringizni tahrirlashingiz mumkin emas
Siz o‘z xabarlaringizni o‘chirishingiz mumkin emas
Siz so‘rovlarda ovoz berishingiz mumkin emas
Siz xabalarga fayllarni biriktirishingiz mumkin emas
Siz fayllarni ko‘chirishingiz mumkin emas