˂
˃
 

AxeL ®

Jins:
Yigit
Staj:
8 oy 24 kun
Xabarlar:
610

Qayerdan: Gronland, Norway

Taqiq:

Qora suv / Чёрные воды / Black Water- Chiqqan yili: 2018
Davlat: Kanada
Janr: jangari, triller, drama
Davomiyligi: 01:44:36
Tarjima: Dublyaj qilingan (O'zbek tilida) MY5 telekanali-Rejissyor: Pavel Patriki-Ssenariy: Chad Lo, Tayler V. Konni, Richard Svitzer
Prodyuser: Jeyson Cherubini, Aleksandr Fergyusson, Tayler V. Konni
Operator: Pavel Patriki
Kompozitor: Spenser Krigan
Rassom: Fernando Valdes, Stiv Mun, Eshli Nikol Allen-Rollarda: Jan-Klod Van Damm, Dolf Lundgren, Patrik Kilpatrik, Kortni Bi Turk, Jasmin Uoltz, Kristofer Van, Varenberg, Jon Pozi, Aaron O'Konnel, Tendi E.Breymi, ...-Tavsif: Agent Auiler yadroviy suv osti kemasida joylashgan maxfiy razvedka turmasida uyg'onadi. Xiyonat qilganlikda ayblanib, u o'z nomini tozalashga harakat qiladi, Bunda unga "jarohatlangan" kameradoshi yordam beradi.-Sifat: BDRip-AVC
Format: MKV
Video: MPEG4 Video (H264) 1024x428 23.976fps 2 071 Kbps
Audio: AAC 48000Hz stereo 2ch 128 kbps O'zbek tilida-

Media Info

General
Unique ID                      : 329052330806719962371763617405177180271 (0xF78D2C78B9701E1B51969A9E3E10306F)
Complete name                  : D:\Seeders\Qora.Suv.2018.BDRip.AVC.AxeL.z.mkv
Format                         : Matroska
Format version                 : Version 4 / Version 2
File size                      : 1.61 GiB
Duration                       : 1h 44mn
Overall bit rate               : 2 201 Kbps
Movie name                     : Black Water (2018) from ExKinoRay
Encoded date                   : UTC 2018-10-23 17:08:34
Writing application            : mkvmerge v22.0.0 ('At The End Of The World') 64-bit
Writing library                : libebml v1.3.5 + libmatroska v1.4.8
Video
ID                             : 1
Format                         : AVC
Format/Info                    : Advanced Video Codec
Format profile                 : High@L4.1
Format settings, CABAC         : Yes
Format settings, ReFrames      : 12 frames
Codec ID                       : V_MPEG4/ISO/AVC
Duration                       : 1h 44mn
Bit rate                       : 2 071 Kbps
Width                          : 1 024 pixels
Height                         : 428 pixels
Display aspect ratio           : 2.40:1
Frame rate mode                : Constant
Frame rate                     : 23.976 (23976/1000) fps
Color space                    : YUV
Chroma subsampling             : 4:2:0
Bit depth                      : 8 bits
Scan type                      : Progressive
Bits/(Pixel*Frame)             : 0.197
Stream size                    : 1.51 GiB (94%)
Title                          : Enigma
Writing library                : x264 core 152 r2851 ba24899
Encoding settings              : cabac=1 / ref=12 / deblock=1:-2:-2 / analyse=0x3:0x113 / me=umh / subme=10 / psy=1 / psy_rd=1.05:0.10 / mixed_ref=1 / me_range=32 / chroma_me=1 / trellis=2 / 8x8dct=1 / cqm=0 / deadzone=21,11 / fast_pskip=0 / chroma_qp_offset=-3 / threads=12 / lookahead_threads=3 / sliced_threads=0 / nr=0 / decimate=0 / interlaced=0 / bluray_compat=0 / constrained_intra=0 / bframes=14 / b_pyramid=2 / b_adapt=2 / b_bias=0 / direct=3 / weightb=1 / open_gop=0 / weightp=2 / keyint=240 / keyint_min=23 / scenecut=40 / intra_refresh=0 / rc_lookahead=40 / rc=2pass / mbtree=0 / bitrate=2071 / ratetol=1.0 / qcomp=0.60 / qpmin=0 / qpmax=51 / qpstep=4 / cplxblur=20.0 / qblur=0.5 / vbv_maxrate=50000 / vbv_bufsize=62500 / nal_hrd=none / filler=0 / ip_ratio=1.40 / pb_ratio=1.30 / aq=2:0.90
Language                       : English
Default                        : Yes
Forced                         : No
Color range                    : Limited
Color primaries                : BT.709
Transfer characteristics       : BT.709
Matrix coefficients            : BT.709
Audio
ID                             : 2
Format                         : AAC
Format/Info                    : Advanced Audio Codec
Format profile                 : LC
Codec ID                       : A_AAC
Duration                       : 1h 44mn
Bit rate                       : 128 Kbps
Channel(s)                     : 2 channels
Channel positions              : Front: L R
Sampling rate                  : 48.0 KHz
Frame rate                     : 46.875 fps (1024 spf)
Compression mode               : Lossy
Stream size                    : 95.6 MiB (6%)
Title                          : O'zbek tilida (MY5 DUB) AxeL
Language                       : Uzbek
Default                        : Yes
Forced                         : No
Profil ShX

N.U.R.I.K.B.E.K

Jins:
Yigit
Staj:
1 yil 1 oy
Xabarlar:
339

Qayerdan: Jizzax. Paxtakor

Taqiq:

shu kinoni ruschasini topolmagandim

Mavzu yaratish 23-Okt-2018 22:43 (22 daqiqa o‘tgach)

Iqitibos

Profil ShX

AxeL ®

Jins:
Yigit
Staj:
8 oy 24 kun
Xabarlar:
610

Qayerdan: Gronland, Norway

Taqiq:

N.U.R.I.K.B.E.K, kinomandan qidirdizmi? u yerda yo'q ekan) men ham boshqa joydan oldim

Mavzu yaratish 23-Okt-2018 22:50 (6 daqiqa o‘tgach)

Iqitibos

Profil ShX

N.U.R.I.K.B.E.K

Jins:
Yigit
Staj:
1 yil 1 oy
Xabarlar:
339

Qayerdan: Jizzax. Paxtakor

Taqiq:

AxeL, xa, sasedniyda borekan izlab ko'rmagan ekanman

Mavzu yaratish 23-Okt-2018 22:59 (8 daqiqa o‘tgach)

Iqitibos

Profil ShX
Xabarlarni ko‘rsatish:    

Hozirgi vaqt: 11-Dek 20:15

Vaqtlar farqi: UTC + 5



Siz mavzu yaratishingiz mumkin emas
Siz xabarlarga javob qaytarishingiz mumkin emas
Siz o‘z xabarlaringizni tahrirlashingiz mumkin emas
Siz o‘z xabarlaringizni o‘chirishingiz mumkin emas
Siz so‘rovlarda ovoz berishingiz mumkin emas
Siz xabalarga fayllarni biriktirishingiz mumkin emas
Siz fayllarni ko‘chirishingiz mumkin emas