˂
˃
Tarqatmalar statistikasi
Yoʻq
 
     
 
 

MRLG ®

Jins:
Yigit
Staj:
1 yil 3 oy
Xabarlar:
523
Taqiq:

-Qo'riqchi | Охранник | Security- FILM HAQIDA MA'LUMOT
Chiqqan yili: 2017
Davlat: AQSH
Janri: Jangari
Davomiyligi: 01:31:53
Tarjima: Dublyaj (Professional kadr ortidan)-Rejissiyor: Alen Derosher
Rollarda
Antonio Banderas, Ben Kingsli, Liam MakIntayr, Gabriella Rayt, Ched Lindberg, Yana Marinova, Kung Le, Mark Smit, Dziro Van-Tavsif
Eddi Dikon faqatgina bir narsani istar edi: tinch va zerikarli ishlashni. U hamma narsaga tayyor, faqat odamlarda uzoqda yashirinsa bo'ldi. Eddining omadi chopdi: Uni savdo markaziga tungi qo'riqchilik vazifasiga ishga olishdi. Lekin birinchi ish kunidayoq barchasi rejadagidek ketmadi. Jinoyatchilar qotillika guvov bo'lib qolgan qizaloqni tunda quvlab borishardi. Ular uchun hattoki zirxlangan politsiya karvoni ham hech narsa emas. Ularni yo'nalitiruvchi asabiy boshliqlari bilan birgalikda hech qanday hatoliklarsiz va hech qanday izlarsiz ishlashadi. Qizaloq savdo markazi qo'riqchisidan yashirinish uchun joy so'raydi. Bu tun Eddining unutishni hohlagan o'tmishini eslashga majbur qiladi.-Qo'shimcha ma'lumotlar-Sifat: BDRip
Format: AVI
Video: | Xvid | 720x304 | 23.976fps | 1818kbps |
Audio #1: MP3 / 48000Hz / 2ch / 128kbps / O'zbek tilida (MY5)
Audio #2: AC3 / 6ch / 48 kHz / 384 kbps / Rus tilida + iTunes-

MI

Общее
Полное имя                               : D:\Кино\O'zbek Tarjima filmlari\Qo'riqchi (2017)\Qo'riqchi.2O17.BDRip_[MRLG].avi
Формат                                   : AVI
Формат/Информация                        : Audio Video Interleave
Размер файла                             : 1,50 Гбайт
Продолжительность                        : 1 ч. 31 м.
Общий поток                              : 2345 Кбит/сек
Программа кодирования                    : VirtualDubMod 1.5.10.3 | www.virtualdub-fr.org || (build 2550/release)
Библиотека кодирования                   : VirtualDubMod build 2550/release
Видео
Идентификатор                            : 0
Формат                                   : MPEG-4 Visual
Профиль формата                          : Advanced Simple@L5
Параметр BVOP формата                    : 1
Параметр QPel формата                    : Нет
Параметр GMC формата                     : Без точки перехода
Параметр матрицы формата                 : Выборочная
Идентификатор кодека                     : XVID
Идентификатор кодека/Подсказка           : XviD
Продолжительность                        : 1 ч. 31 м.
Битрейт                                  : 1819 Кбит/сек
Ширина                                   : 720 пикселей
Высота                                   : 304 пикселя
Соотношение сторон                       : 2,35:1
Частота кадров                           : 23,976 (24000/1001) кадра/сек
Цветовое пространство                    : YUV
Субдискретизация насыщенности            : 4:2:0
Битовая глубина                          : 8 бит
Тип развёртки                            : Прогрессивная
Метод сжатия                             : С потерями
Бит/(Пиксели*Кадры)                      : 0.347
Размер потока                            : 1,17 Гбайт (78%)
Библиотека кодирования                   : XviD 73
Аудио #1
Идентификатор                            : 1
Формат                                   : MPEG Audio
Версия формата                           : Version 1
Профиль формата                          : Layer 3
Идентификатор кодека                     : 55
Идентификатор кодека/Подсказка           : MP3
Продолжительность                        : 1 ч. 31 м.
Вид битрейта                             : Постоянный
Битрейт                                  : 128 Кбит/сек
Каналы                                   : 2 канала
Частота                                  : 48,0 КГц
Метод сжатия                             : С потерями
Размер потока                            : 84,1 Мбайт (5%)
Выравнивание                             : Соединение по промежуткам
Продолжительность промежутка             : 42  мс. (1,00 видеокадр)
Время предзагрузки промежутка            : 504  мс.
Библиотека кодирования                   : LAME3.99r
Настройки программы                      : -m s -V 4 -q 0 -lowpass 17 -b 128
Аудио #2
Идентификатор                            : 2
Формат                                   : AC-3
Формат/Информация                        : Audio Coding 3
Параметр Endianness формата              : Big
Идентификатор кодека                     : 2000
Продолжительность                        : 1 ч. 31 м.
Вид битрейта                             : Постоянный
Битрейт                                  : 384 Кбит/сек
Каналы                                   : 6 каналов
Расположение каналов                     : Front: L C R, Side: L R, LFE
Частота                                  : 48,0 КГц
Частота кадров                           : 31,250 кадров/сек (1536 SPF)
Битовая глубина                          : 16 бит
Метод сжатия                             : С потерями
Размер потока                            : 252 Мбайт (16%)
Выравнивание                             : Разделение по промежуткам
Продолжительность промежутка             : 42  мс. (1,00 видеокадр)
Время предзагрузки промежутка            : 500  мс.
ServiceKind/String                       : Complete Main

Miniatyura

SKRINSHOTLAR
Profil ShX

vuelta

Jins:
Yigit
Staj:
1 yil 3 oy
Xabarlar:
298
Taqiq:

yaxshi kino ga uxshaydi

Mavzu yaratish 25-Avg-2017 21:59 (2 kun 4 soat o‘tgach)

Iqitibos

Profil ShX

Serjjo

Jins:
Yigit
Staj:
1 yil 3 oy
Xabarlar:
3
Taqiq:

MRLG, Salom, qalesiz ovozi qaley yaxshi tushganmi

Mavzu yaratish 05-Sen-2017 17:42 (10 kun o‘tgach)

Iqitibos

Profil ShX

MRLG ®

Jins:
Yigit
Staj:
1 yil 3 oy
Xabarlar:
523
Taqiq:

Serjjo, bilishimcha yaxshi tushgan. Bilmadim boshqani kozi bilan korish kerak filmni)))

Mavzu yaratish 06-Sen-2017 10:24 (16 soat o‘tgach)

Iqitibos

Profil ShX
Xabarlarni ko‘rsatish:    

Hozirgi vaqt: 18-Noy 17:11

Vaqtlar farqi: UTC + 5



Siz mavzu yaratishingiz mumkin emas
Siz xabarlarga javob qaytarishingiz mumkin emas
Siz o‘z xabarlaringizni tahrirlashingiz mumkin emas
Siz o‘z xabarlaringizni o‘chirishingiz mumkin emas
Siz so‘rovlarda ovoz berishingiz mumkin emas
Siz xabalarga fayllarni biriktirishingiz mumkin emas
Siz fayllarni ko‘chirishingiz mumkin emas