˂
˃
Tarqatmalar statistikasi
Yoʻq
 
     
 
 

Striker ®

Jins:
Yigit
Staj:
1 yil 3 oy
Xabarlar:
37
Taqiq:


Qo'riqchi / Охранник / Security
Davlat: AQSH
Janr: Jangari
Chiqqan yili: 2017
Davomiyligi: 01:31:53
Tarjima: Professional (dublyaj qilingan)(Rus tiliga)
Subtitrlar: yo'q
Rejissyor: Alen Derosher
Rollarda: Antonio Banderos, Ben Kingsli, Liam MakIntayr, Gabriella Rayt, Ched Lindberg, Yana Marinova, Kung Le, Mark Smit, Dziro VanTavsif: Эдди Дикон хотел лишь одного: тихой и скучной работы. Он был согласен на все, что угодно, лишь бы скрыться подальше от людской суеты. И Эдди повезло: его взяли на должность ночного охранника в торговом центре. Но уже в первую смену все идет не по плану. Преступники преследуют в ночи девочку, свидетельницу убийства. Для них не помеха даже бронированный полицейский кортеж. Направляемые лидером-психопатом, они действуют без ошибок и не оставляют следов. Девочка просит укрытия у охраны торгового центра. Эта ночь заставит Эдди вспомнить все то, что он так хотел забыть.Sifat: BDRip
Format: AVI
Video: Xvid 720x304 23.976fps 1818kbps
Audio: Dolby AC3 48000Hz 6ch 384kbps

MediaInfo

General
Complete name : D:\FILMS\2017\Security.avi
Format : AVI
Format/Info : Audio Video Interleave
File size : 1.42 GiB
Duration : 1h 31mn
Overall bit rate : 2 212 Kbps
Writing application : VirtualDubMod 1.5.10.2 (build 2540/release)
Writing library : VirtualDubMod build 2540/release
Video
ID : 0
Format : MPEG-4 Visual
Format profile : Advanced Simple@L5
Format settings, BVOP : Yes
Format settings, QPel : No
Format settings, GMC : No warppoints
Format settings, Matrix : Custom
Codec ID : XVID
Codec ID/Hint : XviD
Duration : 1h 31mn
Bit rate : 1 819 Kbps
Width : 720 pixels
Height : 304 pixels
Display aspect ratio : 2.35:1
Frame rate : 23.976 fps
Color space : YUV
Chroma subsampling : 4:2:0
Bit depth : 8 bits
Scan type : Progressive
Compression mode : Lossy
Bits/(Pixel*Frame) : 0.347
Stream size : 1.17 GiB (82%)
Writing library : XviD 73
Audio
ID : 1
Format : AC-3
Format/Info : Audio Coding 3
Mode extension : CM (complete main)
Format settings, Endianness : Big
Codec ID : 2000
Duration : 1h 31mn
Bit rate mode : Constant
Bit rate : 384 Kbps
Channel(s) : 6 channels
Channel positions : Front: L C R, Side: L R, LFE
Sampling rate : 48.0 KHz
Bit depth : 16 bits
Compression mode : Lossy
Stream size : 252 MiB (17%)
Alignment : Split accross interleaves
Interleave, duration : 42 ms (1.00 video frame)
Interleave, preload duration : 500 ms

SCREENS



So‘ngi marta tahrirlandi: Striker (2017-10-26 20:55), Jami tahrirlangan 1 marta
Profil ShX

Vampire_1987

Jins:
Ko‘rsatilmagan
Staj:
1 yil 2 oy
Xabarlar:
115
Taqiq:

Striker, Shepkani To'g'irlang )

Mavzu yaratish 26-Okt-2017 13:27 (11 soat o‘tgach)

Iqitibos

Profil ShX

Striker ®

Jins:
Yigit
Staj:
1 yil 3 oy
Xabarlar:
37
Taqiq:

646Striker, Shepkani To'g'irlang )
tushunmadim?

Mavzu yaratish 26-Okt-2017 19:06 (5 soat o‘tgach)

Iqitibos

Profil ShX
Xabarlarni ko‘rsatish:    

Hozirgi vaqt: 21-Noy 19:49

Vaqtlar farqi: UTC + 5



Siz mavzu yaratishingiz mumkin emas
Siz xabarlarga javob qaytarishingiz mumkin emas
Siz o‘z xabarlaringizni tahrirlashingiz mumkin emas
Siz o‘z xabarlaringizni o‘chirishingiz mumkin emas
Siz so‘rovlarda ovoz berishingiz mumkin emas
Siz xabalarga fayllarni biriktirishingiz mumkin emas
Siz fayllarni ko‘chirishingiz mumkin emas