Tarqatmalar statistikasi
Yoʻq
 
     
 
 

Javohir123 ®

Jins:
Yigit
Staj:
9 oy 23 kun
Xabarlar:
47
Taqiq:

Qo'riqchi | Охранник | Security-- Davlat: AQSH
Janr: Jangari
Chiqqan yili: 2017
Davomiyligi: 01:31:53-Tarjima: Professional (dublyaj qilingan) O'zbek Tilida
Rejissiyor: Alen Derocher-Rollarda: Ben Kingsley, Antonio Banderas, Liam McIntyre, Chad Lindberg,
Gabriella Wright, Cung Le, Yana Marinova, Mark Smit, Bashar Rahal, Jiro Wang
-Описание: Эдди Дикон хотел лишь одного: тихой и скучной работы. Он был согласен на все, что угодно, лишь бы скрыться подальше от людской суеты. И Эдди повезло: его взяли на должность ночного охранника в торговом центре. Но уже в первую смену все идет не по плану.Преступники преследуют в ночи девочку, свидетельницу убийства. Для них не помеха даже бронированный полицейский кортеж. Направляемые лидером-психопатом, они действуют без ошибок и не оставляют следов. Девочка просит укрытия у охраны торгового центра.Эта ночь заставит Эдди вспомнить все то, что он так хотел забыть.-]Videoning sifati: BDRip
Формат видео: MKV-Video: MPEG4 Video (H264) 1920x804 23.976fps
Audio: Dolby AC3 48000Hz 6ch 384kbps Rus
Audio: Dolby AC3 48000Hz 6ch 640kbps Eng
Audio: MP3 44100Hz stereo 128kbps Uzb -

MediaInfo

General
Unique ID : 200226169306900077627338558198889352797 (0x96A22852B1ABD5BBAAF4FA99E0A48E5D)
Complete name :
Format : Matroska
Format version : Version 4 / Version 2
File size : 7.79 GiB
Duration : 1 h 31 min
Overall bit rate : 12.1 Mb/s
Encoded date : UTC 2017-10-08 08:50:36
Writing application : mkvmerge v9.2.0 ('Photograph') 64bit
Writing library : libebml v1.3.3 + libmatroska v1.4.4
Video
ID : 1
Format : AVC
Format/Info : Advanced Video Codec
Format profile : High@L4.1
Format settings, CABAC : Yes
Format settings, RefFrames : 5 frames
Codec ID : V_MPEG4/ISO/AVC
Duration : 1 h 31 min
Bit rate : 11.0 Mb/s
Width : 1 920 pixels
Height : 804 pixels
Display aspect ratio : 2.40:1
Frame rate mode : Constant
Frame rate : 23.976 (24000/1001) FPS
Color space : YUV
Chroma subsampling : 4:2:0
Bit depth : 8 bits
Scan type : Progressive
Bits/(Pixel*Frame) : 0.297
Stream size : 7.05 GiB (90%)
Writing library : x264 core 148 r2705 3f5ed56
Encoding settings : cabac=1 / ref=5 / deblock=1:-3:-3 / analyse=0x3:0x133 / me=umh / subme=11 / psy=1 / psy_rd=1.05:0.05 / mixed_ref=1 / me_range=32 / chroma_me=1 / trellis=2 / 8x8dct=1 / cqm=0 / deadzone=21,11 / fast_pskip=0 / chroma_qp_offset=-3 / threads=22 / lookahead_threads=4 / sliced_threads=0 / nr=0 / decimate=0 / interlaced=0 / bluray_compat=0 / constrained_intra=0 / bframes=8 / b_pyramid=2 / b_adapt=2 / b_bias=0 / direct=3 / weightb=1 / open_gop=0 / weightp=2 / keyint=240 / keyint_min=23 / scenecut=40 / intra_refresh=0 / rc_lookahead=50 / rc=2pass / mbtree=0 / bitrate=11000 / ratetol=1.0 / qcomp=0.60 / qpmin=0 / qpmax=69 / qpstep=4 / cplxblur=20.0 / qblur=0.5 / vbv_maxrate=50000 / vbv_bufsize=62500 / nal_hrd=none / filler=0 / ip_ratio=1.40 / pb_ratio=1.30 / aq=3:0.80
Language : English
Default : Yes
Forced : No
Audio #1
ID : 2
Format : AC-3
Format/Info : Audio Coding 3
Format settings, Endianness : Big
Codec ID : A_AC3
Duration : 1 h 31 min
Bit rate mode : Constant
Bit rate : 384 kb/s
Channel(s) : 6 channels
Channel positions : Front: L C R, Side: L R, LFE
Sampling rate : 48.0 kHz
Frame rate : 31.250 FPS (1536 SPF)
Bit depth : 16 bits
Compression mode : Lossy
Stream size : 252 MiB (3%)
Title : iTunes
Language : Russian
Service kind : Complete Main
Default : Yes
Forced : No
Audio #2
ID : 3
Format : AC-3
Format/Info : Audio Coding 3
Format settings, Endianness : Big
Codec ID : A_AC3
Duration : 1 h 31 min
Bit rate mode : Constant
Bit rate : 640 kb/s
Channel(s) : 6 channels
Channel positions : Front: L C R, Side: L R, LFE
Sampling rate : 48.0 kHz
Frame rate : 31.250 FPS (1536 SPF)
Bit depth : 16 bits
Compression mode : Lossy
Stream size : 421 MiB (5%)
Title : Original
Language : English
Service kind : Complete Main
Default : No
Forced : No
Audio #3
ID : 4
Format : MPEG Audio
Format version : Version 1
Format profile : Layer 3
Mode : Joint stereo
Mode extension : MS Stereo
Codec ID : A_MPEG/L3
Codec ID/Hint : MP3
Duration : 1 h 31 min
Bit rate mode : Constant
Bit rate : 128 kb/s
Channel(s) : 2 channels
Sampling rate : 44.1 kHz
Frame rate : 38.281 FPS (1152 SPF)
Compression mode : Lossy
Stream size : 84.1 MiB (1%)
Title : Br@Vo
Writing library : LAME3.98.2
Language : Uzbek
Default : No
Forced : No


So‘ngi marta tahrirlandi: Javohir123 (2017-11-23 14:14), Jami tahrirlangan 1 marta
Profil ShX

Javohir123 ®

Jins:
Yigit
Staj:
9 oy 23 kun
Xabarlar:
47
Taqiq:

HD Foramatda

Mavzu yaratish 26-Okt-2017 19:58 (3 daqiqa o‘tgach)

Iqitibos

Profil ShX

Javohir123 ®

Jins:
Yigit
Staj:
9 oy 23 kun
Xabarlar:
47
Taqiq:

Mening Tarifim Active NEW-1

Mavzu yaratish 26-Okt-2017 22:48 (2 soat 50 daqiqa o‘tgach)

Iqitibos

Profil ShX
Xabarlarni ko‘rsatish:    

Hozirgi vaqt: 22-Iyul 19:15

Vaqtlar farqi: UTC + 5



Siz mavzu yaratishingiz mumkin emas
Siz xabarlarga javob qaytarishingiz mumkin emas
Siz o‘z xabarlaringizni tahrirlashingiz mumkin emas
Siz o‘z xabarlaringizni o‘chirishingiz mumkin emas
Siz so‘rovlarda ovoz berishingiz mumkin emas
Siz xabalarga fayllarni biriktirishingiz mumkin emas
Siz fayllarni ko‘chirishingiz mumkin emas