Tarqatmalar statistikasi
Ko‘chirmoqdaman: [ 1 ]
Ko‘chirib bo‘ldim: [ 2 ]
 
     
 
 

MRLG ®

Jins:
Yigit
Staj:
11 oy 6 kun
Xabarlar:
379
Taqiq:

Qorongulik qutblari / Области тьмы / Limitless -««Nima agar bittagina NZT tabletkasi seni boy va har narsaga qodir qilsa? Aks ta`siri haqida bilib ol»»- -
Chiqqan yili: 2011
Davlat: AQSH
Janr: fantastika, triller, detektiv
Davomiyligi: 01:44:44
Tarjima: Professional dublyaj (Kadr ortidan)- Rejissiyor: Nil Byorger / Neil Burger- Rollarda:
-Bredli Kuper, Robert De Niro, Ebbi Kornish, Endryu Xovard, Anna Fril, Djonni Vituort, Tomas Arana, Robert Djon Byork, Darren Goldshteyn, Ned Eyzenberg, T.V. Karpio, Richard Bekins- Tavsif:
Нью-йоркский писатель Эдди, желая преодолеть чёрную полосу в жизни, принимает засекреченный препарат под названием NZT. Таблетка выводит мозг парня на работу в нереальной мощности. Этот творческий наркотик меняет всю жизнь Эдди, за короткий срок он зарабатывает кучу денег, но скоро начинает страдать от зловещих побочных эффектов препарата. А когда пытается найти других NZT-гениев, чтобы понять, как можно справиться с этим пристрастием, он узнает страшную правду...-Dunyodagi primierasi: 8 марта 2011
КиноПоиск: 7.983 (214 116)
IMDb: 7.40 (453 744)- Sifat: BDRip-AVC
Format: MKV
Video: AVC, 1024x428 (2.40:1), 1603 kbps, 23,976 fps, 0,153 bpp
Audio №1: русский / AC3 / 5.1 / 48 kHz / 384 kbps / | iTunes
Audio №2: Uzbek / MP3 / 2.0 / 48 kHz / 128 kbps / | O`zbek tilida-

Media Info

General
Unique ID                                : 234841737944211733743901478869345866060 (0xB0ACDF9FA74EAA00BF6BB58A1A3D914C)
Complete name                            : D:\Кино\Tarjima filmlar\Qorong'ulik qutblari (2011)\Qorong'ulik qutblari.2011.BDRip-AVC.mkv
Format                                   : Matroska
Format version                           : Version 2
File size                                : 1.55 GiB
Duration                                 : 1 h 44 min
Overall bit rate                         : 2 115 kb/s
Movie name                               : Oblasti tmy / 2011 / Release by Vaippp / OpenSharing Team
Encoded date                             : UTC 2017-10-02 13:08:58
Writing application                      : mkvmerge v7.8.0 ('River Man') 32bit built on Apr  3 2015 12:11:22
Writing library                          : libebml v1.3.1 + libmatroska v1.4.2
Video
ID                                       : 1
Format                                   : AVC
Format/Info                              : Advanced Video Codec
Format profile                           : High@L3.2
Format settings, CABAC                   : Yes
Format settings, ReFrames                : 11 frames
Codec ID                                 : V_MPEG4/ISO/AVC
Duration                                 : 1 h 44 min
Bit rate                                 : 1 603 kb/s
Width                                    : 1 024 pixels
Height                                   : 428 pixels
Display aspect ratio                     : 2.40:1
Frame rate mode                          : Constant
Frame rate                               : 23.976 (24000/1001) FPS
Color space                              : YUV
Chroma subsampling                       : 4:2:0
Bit depth                                : 8 bits
Scan type                                : Progressive
Bits/(Pixel*Frame)                       : 0.153
Stream size                              : 1.14 GiB (74%)
Title                                    : BDRip by Vaippp
Writing library                          : x264 core 114 r1924 08d04a4
Encoding settings                        : cabac=1 / ref=11 / deblock=1:-2:-1 / analyse=0x3:0x133 / me=umh / subme=9 / psy=1 / psy_rd=1.05:0.13 / mixed_ref=1 / me_range=32 / chroma_me=1 / trellis=2 / 8x8dct=1 / cqm=0 / deadzone=21,11 / fast_pskip=0 / chroma_qp_offset=-3 / threads=12 / sliced_threads=0 / nr=0 / decimate=1 / interlaced=0 / constrained_intra=0 / bframes=10 / b_pyramid=2 / b_adapt=2 / b_bias=0 / direct=3 / weightb=1 / open_gop=0 / weightp=2 / keyint=250 / keyint_min=23 / scenecut=40 / intra_refresh=0 / rc=2pass / mbtree=0 / bitrate=1603 / ratetol=1.0 / qcomp=0.65 / qpmin=0 / qpmax=69 / qpstep=4 / cplxblur=20.0 / qblur=0.5 / ip_ratio=1.40 / pb_ratio=1.30 / aq=1:0.90
Language                                 : English
Default                                  : Yes
Forced                                   : No
Audio #1
ID                                       : 2
Format                                   : AC-3
Format/Info                              : Audio Coding 3
Mode extension                           : CM (complete main)
Format settings, Endianness              : Big
Codec ID                                 : A_AC3
Duration                                 : 1 h 44 min
Bit rate mode                            : Constant
Bit rate                                 : 384 kb/s
Channel(s)                               : 6 channels
Channel positions                        : Front: L C R, Side: L R, LFE
Sampling rate                            : 48.0 kHz
Frame rate                               : 31.250 FPS (1536 spf)
Compression mode                         : Lossy
Stream size                              : 288 MiB (18%)
Title                                    : DUB
Language                                 : Russian
Default                                  : No
Forced                                   : No
Audio #2
ID                                       : 3
Format                                   : MPEG Audio
Format version                           : Version 1
Format profile                           : Layer 3
Codec ID                                 : A_MPEG/L3
Codec ID/Hint                            : MP3
Duration                                 : 1 h 44 min
Bit rate mode                            : Constant
Bit rate                                 : 128 kb/s
Channel(s)                               : 2 channels
Sampling rate                            : 48.0 kHz
Compression mode                         : Lossy
Stream size                              : 95.9 MiB (6%)
Title                                    : DUB
Writing library                          : LAME3.99r
Encoding settings                        : -m s -V 4 -q 0 -lowpass 17 -b 128
Language                                 : Uzbek
Default                                  : No
Forced                                   : No
Menu
00:00:00.000                             : ru:00:00:00.000
00:06:51.828                             : ru:00:06:51.828
00:16:24.734                             : ru:00:16:24.734
00:24:16.205                             : ru:00:24:16.205
00:31:33.517                             : ru:00:31:33.517
00:40:19.792                             : ru:00:40:19.792
00:46:37.169                             : ru:00:46:37.169
00:54:27.890                             : ru:00:54:27.890
01:05:40.687                             : ru:01:05:40.687
01:15:25.312                             : ru:01:15:25.312
01:20:10.222                             : ru:01:20:10.222
01:31:46.459                             : ru:01:31:46.459

Miniatyura

SKRINSHOTLAR
- © Template by MRLG
Profil ShX

Rico_Bek

Jins:
Yigit
Staj:
9 oy 17 kun
Xabarlar:
104

Qayerdan: Andijon

Taqiq:

Raxmat. Ruschasini ko`rgandim. O`zbekchasini xam ko`raychi.

Mavzu yaratish 05-Okt-2017 20:34 (1 soat 21 daqiqa o‘tgach)

Iqitibos

Profil ShX

MRLG ®

Jins:
Yigit
Staj:
11 oy 6 kun
Xabarlar:
379
Taqiq:

Rico_Bek, Kimga qanday bilmadimu, film menga ham yoqqan. 2-3 marta ko`rganman. 2 yil oldin shu filmni seriali ham chiqdi. uni ham tomosha qilgandim.

Mavzu yaratish 05-Okt-2017 20:40 (6 daqiqa o‘tgach)

Iqitibos

Profil ShX

Jamik

Jins:
Ko‘rsatilmagan
Staj:
10 oy 29 kun
Xabarlar:
14
Taqiq:

menda pirlar yo'q. qanaqa qilib ko'chiraman????

Mavzu yaratish 05-Okt-2017 22:39 (1 soat 59 daqiqa o‘tgach)

Iqitibos

Profil ShX

Frozen

Jins:
Yigit
Staj:
11 oy 4 kun
Xabarlar:
58

Qayerdan: Toshkent, Navoi

Taqiq:

Zo`r kino, yana bir ko`rsa arziydi

Mavzu yaratish 06-Okt-2017 11:23 (12 soat o‘tgach)

Iqitibos

Profil ShX
Xabarlarni ko‘rsatish:    

Hozirgi vaqt: 22-Iyul 19:14

Vaqtlar farqi: UTC + 5



Siz mavzu yaratishingiz mumkin emas
Siz xabarlarga javob qaytarishingiz mumkin emas
Siz o‘z xabarlaringizni tahrirlashingiz mumkin emas
Siz o‘z xabarlaringizni o‘chirishingiz mumkin emas
Siz so‘rovlarda ovoz berishingiz mumkin emas
Siz xabalarga fayllarni biriktirishingiz mumkin emas
Siz fayllarni ko‘chirishingiz mumkin emas