Tarqatmalar statistikasi
Yoʻq
 
     
 
 

MRLG ®

Jins:
Yigit
Staj:
1 yil 1 oy
Xabarlar:
465
Taqiq:

Qotillik qarmog'ida / На крючке / Eagle Eye -««Yashashni istasang - aytganlarini bajar»»- -
Chiqqan yili: 2008
Davlat: AQSH, Germaniya
Janr: Fantastika, Jangari, Triller
Davomiyligi: 01:57:34
Tarjima: Professional dublyaj (kadr ortidan)- Rejissiyor: D.J. Caruso- Rollarda:
-Shaya LaBaf, Mishel Monaxen, Billi Bob Tornton, Rozario Douson, Maykl Chiklis, Entoni Maki, Iten Embri, Entoni Azizi, Kemeron Boys, Linn Koen, Bill Smitrovich, Charlz Kerrol- Tavsif:
Yosh bekorchi yigitcha Jerry Show, egizak akasidan farqli o'laroq hayotda hech qanday o'ylovlarsiz yashaydi. Akasi esa sirli tarzda o'lmaganicha, hayotning bacha turdagi ishlarida yuqori cho'qqilarga erishadi. Huddi shu vaqtda Reychel yolg'iz onani farzandi yo'qoladi, va tez orada ularni terroristlikda ayblashadi. Ular birgalikda o'z hayotlarini qutqarishni yo'lini izlashadi!-Ilk primeryаsi: 16 sentyabr 2008 yil
KinoPoisk: 7.414 (59 374)
IMDb: 6.60 (149 997)- Sifati: BDRip
Format: AVI
Video: XviD, 720x304 (2.35:1), 1368 kbps, 23,976 fps, 0,261 bpp
Audio №1: AC3 / 2.0 / 48 kHz / 192 kbps / - Russian (Professional dublyaj)
Audio №2: MP3 / 2.0 / 44 kHz / 128 kbps / - YoshlarTV (Kadr ortidan)
Audio №3: MP3 / 2.0 / 44 kHz / 192 kbps / - NTT (Kadr ortidan)-

〤 Media Info

General
Complete name                            : D:\Кино\Tarjima filmlar\Qotillik.Qarmog'ida.2008.BDRip.2xUZ.DUB.avi
Format                                   : AVI
Format/Info                              : Audio Video Interleave
File size                                : 1.56 GiB
Duration                                 : 1 h 57 min
Overall bit rate                         : 1 899 kb/s
Writing application                      : VirtualDubMod 1.5.10.3 | www.virtualdub-fr.org || (build 2550/release)
Writing library                          : VirtualDubMod build 2550/release
Copyright                                : rip by maygli
Video
ID                                       : 0
Format                                   : MPEG-4 Visual
Format profile                           : Advanced Simple@L5
Format settings, BVOP                    : 3
Format settings, QPel                    : Yes
Format settings, GMC                     : 3 warppoints
Format settings, Matrix                  : Default (H.263)
Codec ID                                 : XVID
Codec ID/Hint                            : XviD
Duration                                 : 1 h 57 min
Bit rate                                 : 1 368 kb/s
Width                                    : 720 pixels
Height                                   : 304 pixels
Display aspect ratio                     : 2.35:1
Frame rate                               : 23.976 (23976/1000) FPS
Color space                              : YUV
Chroma subsampling                       : 4:2:0
Bit depth                                : 8 bits
Scan type                                : Progressive
Compression mode                         : Lossy
Bits/(Pixel*Frame)                       : 0.261
Stream size                              : 1.12 GiB (72%)
Writing library                          : XviD 1.2.1 (UTC 2008-12-04)
Audio #1
ID                                       : 1
Format                                   : AC-3
Format/Info                              : Audio Coding 3
Mode extension                           : CM (complete main)
Format settings, Endianness              : Big
Codec ID                                 : 2000
Duration                                 : 1 h 57 min
Bit rate mode                            : Constant
Bit rate                                 : 192 kb/s
Channel(s)                               : 2 channels
Channel positions                        : Front: L R
Sampling rate                            : 48.0 kHz
Frame rate                               : 31.250 FPS (1536 spf)
Compression mode                         : Lossy
Delay relative to video                  : 1 s 344 ms
Stream size                              : 161 MiB (10%)
Alignment                                : Split accross interleaves
Interleave, duration                     : 42  ms (1.00 video frame)
Interleave, preload duration             : 500  ms
Audio #2
ID                                       : 2
Format                                   : MPEG Audio
Format version                           : Version 1
Format profile                           : Layer 3
Codec ID                                 : 55
Codec ID/Hint                            : MP3
Duration                                 : 1 h 57 min
Bit rate mode                            : Constant
Bit rate                                 : 128 kb/s
Channel(s)                               : 2 channels
Sampling rate                            : 44.1 kHz
Compression mode                         : Lossy
Stream size                              : 108 MiB (7%)
Alignment                                : Split accross interleaves
Interleave, duration                     : 42  ms (1.00 video frame)
Interleave, preload duration             : 500  ms
Writing library                          : LAME3.99r
Encoding settings                        : -m s -V 4 -q 2 -lowpass 17 -b 128
Audio #3
ID                                       : 3
Format                                   : MPEG Audio
Format version                           : Version 1
Format profile                           : Layer 3
Codec ID                                 : 55
Codec ID/Hint                            : MP3
Duration                                 : 1 h 57 min
Bit rate mode                            : Constant
Bit rate                                 : 192 kb/s
Channel(s)                               : 2 channels
Sampling rate                            : 44.1 kHz
Compression mode                         : Lossy
Stream size                              : 161 MiB (10%)
Alignment                                : Split accross interleaves
Interleave, duration                     : 42  ms (1.00 video frame)
Interleave, preload duration             : 500  ms
Writing library                          : LAME3.97
Encoding settings                        : -m s -V 4 -q 2 -lowpass 18.6 -b 192

Miniatyura

Filmdan kadrlar
Profil ShX

MRLG ®

Jins:
Yigit
Staj:
1 yil 1 oy
Xabarlar:
465
Taqiq:

O`tgan safar shu filmni tayyorlaganimda Daxshat sayti yoppasiga kochirib olgandi. Filmdan to film uchun ishlatilgan oformleniyalargacha : mana
P.S.: YoshlarTVdan berganda juda kop joyni qirqishgan shu tufayli filmda uzilishlar kuzatilishi mumkin. Buning uchun YoshlarTV nomidan uzr surayman.

Mavzu yaratish 19-Sen-2017 13:10 (4 daqiqa o‘tgach)

Iqitibos

Profil ShX

vuelta

Jins:
Yigit
Staj:
1 yil 1 oy
Xabarlar:
294
Taqiq:

MRLG, xa daxshat uz ni kurudik kup filmlarni yoppasiga skachat qivolib quyganini

Mavzu yaratish 19-Sen-2017 13:14 (3 daqiqa o‘tgach)

Iqitibos

Profil ShX

vuelta

Jins:
Yigit
Staj:
1 yil 1 oy
Xabarlar:
294
Taqiq:

buniyam vds ga tawadim skachat qivolsa tarqatadi hammaga

Mavzu yaratish 19-Sen-2017 13:16 (2 daqiqa o‘tgach)

Iqitibos

Profil ShX

admin

Jins:
Yigit
Staj:
5 oy 14 kun
Xabarlar:
5

Qayerdan: Tashkent, Navai

Taqiq:

Relizga yuq! Diqqat! Malumotdan boshqa saytlarda foydalanilganda Manba ko`rsatilishi shart deb topic ga qoshib qoyaman yani kim o`z saytiga ko`chirsa ham uztracker manbani qo`shib qo`yishi kerak (Mualliflik huquqini himoyalagan holda)

Mavzu yaratish 19-Sen-2017 16:15 (2 soat 59 daqiqa o‘tgach)

Iqitibos

Profil ShX

Frozen

Jins:
Yigit
Staj:
1 yil 1 oy
Xabarlar:
58

Qayerdan: Toshkent, Navoi

Taqiq:

011312

Mavzu yaratish 25-Sen-2017 17:09 (6 kun o‘tgach)

Iqitibos

Profil ShX
Xabarlarni ko‘rsatish:    

Hozirgi vaqt: 21-Sen 11:04

Vaqtlar farqi: UTC + 5



Siz mavzu yaratishingiz mumkin emas
Siz xabarlarga javob qaytarishingiz mumkin emas
Siz o‘z xabarlaringizni tahrirlashingiz mumkin emas
Siz o‘z xabarlaringizni o‘chirishingiz mumkin emas
Siz so‘rovlarda ovoz berishingiz mumkin emas
Siz xabalarga fayllarni biriktirishingiz mumkin emas
Siz fayllarni ko‘chirishingiz mumkin emas