Tarqatmalar statistikasi
Yoʻq
 
     
 
 

Gr@nd ®

Jins:
Yigit
Staj:
11 oy 23 kun
Xabarlar:
150

Qayerdan: Jizzax Forish

Taqiq:

- -Qoyilmoqom yettilik | Великолепная семерка- -Davlat: AQSH
Janr: Jangari, sarguzasht
Chiqqan yili: 2016
Davomiyligi: 02:12:50-Tarjima: Professional (dublyaj qilingan) O'zbek tilida-Rejissiyor: Antuan Fukua-Rollarda: Dеnzеl Vashington, Kris Pratt, Itan Xouk, Vinsеnt D'Onofrio, Li Byon-xon, Manuel Rulfo, Martin Sеnsmеyеr, Xеyli Bеnnеtt, Pitеr Sarsgaard, Lyuk Grayms-Tavsif: Yettita dovyurak adventistlar qaroqchilar to'dasi tomonidan bosim ostida bo'lgan kichik shahar aholisi himoyasiga keladi.-Videoning sifati: BDRip
Формат видео: MKV-Video: MPEG4 Video (H264) 1008x420 23.976fps 2 370 Kbps
Audio: Dolby AC3 48000Hz 6ch Rus
Audio: Dolby AC3 48000Hz 6ch Eng
Audio: MP3 48000Hz 2ch 128kbps Uzb
-

MediaInfo

General
Unique ID : 201973364883106701441651762839006926596 (0x97F2A7B73C4C5EC0A5BB77452A32D704)
Format : Matroska
Format version : Version 4 / Version 2
File size : 3.03 GiB
Duration : 2h 12mn
Overall bit rate : 3 269 Kbps
Movie name : Xusan_Gr@nd
Encoded date : UTC 2017-01-21 15:15:58
Writing application : mkvmerge v6.8.0 ('Theme for Great Cities') 64bit built on Mar 2 2014 21:34:26
Writing library : libebml v1.3.0 + libmatroska v1.4.1
Video
ID : 1
Format : AVC
Format/Info : Advanced Video Codec
Format profile : High@L4.1
Format settings, CABAC : Yes
Format settings, ReFrames : 11 frames
Codec ID : V_MPEG4/ISO/AVC
Duration : 2h 12mn
Bit rate : 2 370 Kbps
Width : 1 008 pixels
Height : 420 pixels
Display aspect ratio : 2.40:1
Frame rate : 23.976 fps
Color space : YUV
Chroma subsampling : 4:2:0
Bit depth : 8 bits
Scan type : Progressive
Bits/(Pixel*Frame) : 0.233
Stream size : 2.14 GiB (71%)
Title : potroks
Writing library : x264 core 146 r2538 121396c
Encoding settings : cabac=1 / ref=11 / deblock=1:-3:-3 / analyse=0x3:0x113 / me=umh / subme=11 / psy=1 / psy_rd=1.00:0.05 / mixed_ref=1 / me_range=48 / chroma_me=1 / trellis=2 / 8x8dct=1 / cqm=0 / deadzone=21,11 / fast_pskip=0 / chroma_qp_offset=-3 / threads=9 / lookahead_threads=2 / sliced_threads=0 / nr=0 / decimate=0 / interlaced=0 / bluray_compat=0 / constrained_intra=0 / bframes=12 / b_pyramid=2 / b_adapt=2 / b_bias=0 / direct=3 / weightb=1 / open_gop=0 / weightp=2 / keyint=240 / keyint_min=23 / scenecut=40 / intra_refresh=0 / rc_lookahead=60 / rc=2pass / mbtree=0 / bitrate=2370 / ratetol=1.0 / qcomp=0.70 / qpmin=0 / qpmax=69 / qpstep=4 / cplxblur=20.0 / qblur=0.5 / vbv_maxrate=14000 / vbv_bufsize=14000 / nal_hrd=none / filler=0 / ip_ratio=1.40 / pb_ratio=1.30 / aq=1:0.80
Language : English
Default : Yes
Forced : No
Audio #1
ID : 2
Format : AC-3
Format/Info : Audio Coding 3
Mode extension : CM (complete main)
Format settings, Endianness : Big
Codec ID : A_AC3
Duration : 2h 12mn
Bit rate mode : Constant
Bit rate : 384 Kbps
Channel(s) : 6 channels
Channel positions : Front: L C R, Side: L R, LFE
Sampling rate : 48.0 KHz
Bit depth : 16 bits
Compression mode : Lossy
Stream size : 365 MiB (12%)
Title : Dub | DD 5.1 @ 384 kbps - Blu-ray CEE
Language : Russian
Default : Yes
Forced : No
Audio #2
ID : 3
Format : AC-3
Format/Info : Audio Coding 3
Mode extension : CM (complete main)
Format settings, Endianness : Big
Codec ID : A_AC3
Duration : 2h 12mn
Bit rate mode : Constant
Bit rate : 384 Kbps
Channel(s) : 6 channels
Channel positions : Front: L C R, Side: L R, LFE
Sampling rate : 48.0 KHz
Bit depth : 16 bits
Compression mode : Lossy
Stream size : 365 MiB (12%)
Title : Original | DD 5.1 @ 384 kbps
Language : English
Default : No
Forced : No
Audio #3
ID : 4
Format : MPEG Audio
Format version : Version 1
Format profile : Layer 3
Mode : Joint stereo
Mode extension : MS Stereo
Codec ID : A_MPEG/L3
Codec ID/Hint : MP3
Duration : 2h 12mn
Bit rate mode : Constant
Bit rate : 128 Kbps
Channel(s) : 2 channels
Sampling rate : 44.1 KHz
Compression mode : Lossy
Stream size : 122 MiB (4%)
Title : Xusan_Gr@nd
Writing library : LAME3.98.2
Language : Uzbek
Default : No
Forced : No


So‘ngi marta tahrirlandi: Gr@nd (2017-10-23 21:54), Jami tahrirlangan 4 marta
Profil ShX
Xabarlarni ko‘rsatish:    

Hozirgi vaqt: 19-Sen 12:24

Vaqtlar farqi: UTC + 5



Siz mavzu yaratishingiz mumkin emas
Siz xabarlarga javob qaytarishingiz mumkin emas
Siz o‘z xabarlaringizni tahrirlashingiz mumkin emas
Siz o‘z xabarlaringizni o‘chirishingiz mumkin emas
Siz so‘rovlarda ovoz berishingiz mumkin emas
Siz xabalarga fayllarni biriktirishingiz mumkin emas
Siz fayllarni ko‘chirishingiz mumkin emas