˂
˃
Tarqatmalar statistikasi
Yoʻq
 
     
 
 

BestBoy ®

Jins:
Yigit
Staj:
1 yil 1 oy
Xabarlar:
63
Taqiq:

Quvnoqlar Va Zukkolar 2017 Final
Chiqqan yili: 2017
Davlat: O'zbekiston
Janr: Kulguli, TV, Shou
Davomiyligi: 03:14:43-Boshlovchi: Umarbek Rahmonqulov-Tavsif: Final, Istiqlol san'at saroyida bo'lip o'tgan QVZ-2017 Final bahsi ajoyib va tas'irli o'tmoqda. Bu yilgi Quvnoqlar va Zukkolar Final qismiga yetib kelgan jamoalar: TBT (Talablarga Binoan Talabalar), Moliyachi, Targ'ibot, Dizayn va Yangi Yulduzlar jamoasi.-Videoning sifati: HDTVRip
Format: MTS-Video: MPEG4 Video (H264) 720x576 (20:11) 25fps
Audio: MPEG Audio 48000Hz stereo 128kbps
--

MediaInfo

General
ID : 25 (0x19)
Complete name : D:\QVZ.2017.Final.mts
Format : BDAV
Format/Info : Blu-ray Video
File size : 3.08 GiB
Duration : 3h 14mn
Overall bit rate mode : Variable
Overall bit rate : 2 267 Kbps
Video
ID : 219 (0xDB)
Menu ID : 19 (0x13)
Format : AVC
Format/Info : Advanced Video Codec
Format profile : Main@L3.0
Format settings, CABAC : Yes
Format settings, ReFrames : 4 frames
Codec ID : 27
Duration : 3h 14mn
Bit rate : 2 041 Kbps
Maximum bit rate : 1 900 Kbps
Width : 720 pixels
Height : 576 pixels
Display aspect ratio : 16:9
Frame rate : 25.000 fps
Standard : PAL
Color space : YUV
Chroma subsampling : 4:2:0
Bit depth : 8 bits
Scan type : Interlaced
Bits/(Pixel*Frame) : 0.197
Stream size : 2.78 GiB (90%)
Color primaries : BT.601 PAL
Transfer characteristics : BT.470 System B, BT.470 System G
Matrix coefficients : BT.601
Audio
ID : 319 (0x13F)
Menu ID : 19 (0x13)
Format : MPEG Audio
Format version : Version 1
Format profile : Layer 2
Codec ID : 3
Duration : 3h 14mn
Bit rate mode : Constant
Bit rate : 128 Kbps
Channel(s) : 2 channels
Sampling rate : 48.0 KHz
Compression mode : Lossy
Delay relative to video : -1s 523ms
Stream size : 178 MiB (6%)
Menu
ID : 119 (0x77)
Menu ID : 19 (0x13)
Duration : 3h 14mn
List : 219 (0xDB) (AVC) / 319 (0x13F) (MPEG Audio)
Maximum bit rate : 2028400
Profil ShX
Xabarlarni ko‘rsatish:    

Hozirgi vaqt: 21-Noy 18:57

Vaqtlar farqi: UTC + 5



Siz mavzu yaratishingiz mumkin emas
Siz xabarlarga javob qaytarishingiz mumkin emas
Siz o‘z xabarlaringizni tahrirlashingiz mumkin emas
Siz o‘z xabarlaringizni o‘chirishingiz mumkin emas
Siz so‘rovlarda ovoz berishingiz mumkin emas
Siz xabalarga fayllarni biriktirishingiz mumkin emas
Siz fayllarni ko‘chirishingiz mumkin emas