˂
˃
Tarqatmalar statistikasi
Yoʻq
 
     
 
 

BestBoy ®

Jins:
Yigit
Staj:
1 yil 1 oy
Xabarlar:
63
Taqiq:

QVZ 2017 Yarim Final 2-O'yin
Davlat: O'zbekiston
Janr: Kulguli, TV, Shou
Chiqqan yili: 2017
Davomiyligi: 02:24:36-Tavsif: Quvnoqlar va Zukkolar 2017 Yarim Final bahsi o'ta shiddatli o'tmoqda. Yarim Final 2-o'yin bahsida barcha o'rta me'yoridagi jamoalar tark etib faqat kuchlilar saralanmoqda.
Videoning sifati: TVRip
Formati: MP4-Video: MPEG4 Video (H264) 640x360 25fps 567kbps
Audio: AAC 44100Hz stereo 64kbps [A: SoundHandler

MediaInfo

General
Complete name : D:\QVZ.2017.Yarim-Final.2-oyin.mp4
Format : MPEG-4
Format profile : Base Media
Codec ID : isom
File size : 656 MiB
Duration : 2h 24mn
Overall bit rate : 634 Kbps
Writing application : Lavf57.83.100
Video
ID : 1
Format : AVC
Format/Info : Advanced Video Codec
Format profile : High@L3.0
Format settings, CABAC : Yes
Format settings, ReFrames : 4 frames
Codec ID : avc1
Codec ID/Info : Advanced Video Coding
Duration : 2h 24mn
Duration_FirstFrame : 46ms
Bit rate : 569 Kbps
Width : 640 pixels
Height : 360 pixels
Display aspect ratio : 16:9
Frame rate mode : Constant
Frame rate : 25.000 fps
Color space : YUV
Chroma subsampling : 4:2:0
Bit depth : 8 bits
Scan type : Progressive
Bits/(Pixel*Frame) : 0.099
Stream size : 587 MiB (89%)
Writing library : x264 core 152 r2851 ba24899
Encoding settings : cabac=1 / ref=4 / deblock=1:2:2 / analyse=0x3:0x113 / me=hex / subme=2 / psy=1 / psy_rd=1.00:0.00 / mixed_ref=1 / me_range=16 / chroma_me=1 / trellis=0 / 8x8dct=1 / cqm=0 / deadzone=21,11 / fast_pskip=1 / chroma_qp_offset=0 / threads=11 / lookahead_threads=2 / sliced_threads=0 / nr=0 / decimate=1 / interlaced=0 / bluray_compat=0 / constrained_intra=0 / bframes=0 / weightp=2 / keyint=75 / keyint_min=7 / scenecut=0 / intra_refresh=0 / rc_lookahead=40 / rc=abr / mbtree=1 / bitrate=569 / ratetol=1.0 / qcomp=0.60 / qpmin=10 / qpmax=51 / qpstep=4 / ip_ratio=0.91 / aq=1:1.00
Tagged date : UTC 2017-12-28 17:28:41
Audio
ID : 2
Format : AAC
Format/Info : Advanced Audio Codec
Format profile : LC
Codec ID : 40
Duration : 2h 24mn
Duration_LastFrame : -7ms
Bit rate mode : Constant
Bit rate : 64.0 Kbps
Channel(s) : 2 channels
Channel positions : Front: L R
Sampling rate : 44.1 KHz
Compression mode : Lossy
Stream size : 66.2 MiB (10%)
Tagged date : UTC 2017-12-28 17:28:41

Lavhalar

Profil ShX

Topik 2017 yil kinofilmlari (Premyeralar) forumidan Quvnoqlar va Zukkolar ga ko'chirildi
MRLG

Mavzu yaratish 06-Yan-2018 13:06 (4 kun o‘tgach)

Xabarlarni ko‘rsatish:    

Hozirgi vaqt: 15-Noy 11:16

Vaqtlar farqi: UTC + 5



Siz mavzu yaratishingiz mumkin emas
Siz xabarlarga javob qaytarishingiz mumkin emas
Siz o‘z xabarlaringizni tahrirlashingiz mumkin emas
Siz o‘z xabarlaringizni o‘chirishingiz mumkin emas
Siz so‘rovlarda ovoz berishingiz mumkin emas
Siz xabalarga fayllarni biriktirishingiz mumkin emas
Siz fayllarni ko‘chirishingiz mumkin emas