Tarqatmalar statistikasi
Ko‘chirmoqdaman: [ 2 ]
Ko‘chirib bo‘ldim: [ 6 ]
 
     
 
 

Abdulloh ®

Jins:
Ko‘rsatilmagan
Staj:
9 oy 22 kun
Xabarlar:
38
Taqiq:

RoboKop | Робокоп | RoboCop
Chiqqan yili: 2014
Davlat: AQSH
Janr: Jangari , Jinoyat , Fantastika
Davomiyligi: 01:57:30
-Tarjima: Professional (Ko'p ovozli kadr ortidan)
Tarjima haqida qo'shimcha ma'lumot: MY5 (Favvora studiyasi) da tarjima qilingan.
Subtitrlar: inglizcha
Original ovoz yo'lagi: Inglizcha
-Rejissiyor: José Padilha

Rollarda: Yuel Kinnaman, Gary Oldman, Maykl Keton, Abby Cornish, Jey Baruchel, Samuel L. Jekson, Aymi G'orsiya, Jennifer Ili, Jackie Earl Hailey, Maykl K. Uilyams
-Tavsif:
Sevimli eri, otasi va yaxshi politsiyasi bo'lgan Aleks Murphy Detroytda urib tushgan jinoyatlar va korruptsiyaga qarshi kurashmoqda. OmniCorp, o'z vazifasini bajarishda og'ir jarohat olgan, qahramonning hayotini saqlab qolish uchun robot tajribasida foydalanishga qaror qildi. Aleks shaharning ko'chalariga qaytib, bagajda yangi qobiliyatlarga ega, ammo oldin hech qachon duch kelmagan savollarni so'raydi.
-Videoning sifati: BDRip-AVC
Video formati: MKV


Video: MPEG4 Video (H264) 1024x426 23.976fps
Audio: #1 MP3 44100Hz stereo 192kbps [uzb]
Audio: #2 Dolby AC3 48000Hz 6ch 384kbps [rus]

Audio: #3 Dolby AC3 48000Hz 6ch 384kbps [eng]

MediaInfo

General
Unique ID : 192609289010098051090847751931190774297 (0x90E7332151D80C1E8DF2950CF14F0A19)
Complete name : D:\Internet\Kino UZ tracker\RoboCop.2014.DUAL.BDRip-AVC.x264.AC3.-HQCLUB_1.mkv
Format : Matroska
Format version : Version 4 / Version 2
File size : 3.07 GiB
Duration : 1 h 57 min
Overall bit rate : 3 739 kb/s
Encoded date : UTC 2018-02-01 16:16:40
Writing application : mkvmerge v7.5.0 ('Glass Culture') 64bit built on Jan 4 2015 16:48:44
Writing library : libebml v1.3.1 + libmatroska v1.4.2
Video
ID : 2
Format : AVC
Format/Info : Advanced Video Codec
Format profile : High@L4.1
Format settings : CABAC / 14 Ref Frames
Format settings, CABAC : Yes
Format settings, ReFrames : 14 frames
Codec ID : V_MPEG4/ISO/AVC
Duration : 1 h 57 min
Bit rate : 2 780 kb/s
Width : 1 024 pixels
Height : 426 pixels
Display aspect ratio : 2.40:1
Frame rate mode : Constant
Frame rate : 23.976 (24000/1001) FPS
Color space : YUV
Chroma subsampling : 4:2:0
Bit depth : 8 bits
Scan type : Progressive
Bits/(Pixel*Frame) : 0.266
Stream size : 2.28 GiB (74%)
Title : РобоКоп / RoboCop (2014) BDRip-AVC by HQCLUB [Elheym]
Writing library : x264 core 142 r2431 ac76440
Encoding settings : cabac=1 / ref=14 / deblock=1:-3:-2 / analyse=0x3:0x113 / me=umh / subme=11 / psy=1 / psy_rd=1.05:0.05 / mixed_ref=1 / me_range=32 / chroma_me=1 / trellis=2 / 8x8dct=1 / cqm=0 / deadzone=21,11 / fast_pskip=1 / chroma_qp_offset=-5 / threads=6 / lookahead_threads=1 / sliced_threads=0 / nr=0 / decimate=1 / interlaced=0 / bluray_compat=0 / constrained_intra=0 / bframes=15 / b_pyramid=2 / b_adapt=2 / b_bias=0 / direct=3 / weightb=1 / open_gop=0 / weightp=2 / keyint=240 / keyint_min=23 / scenecut=40 / intra_refresh=0 / rc_lookahead=40 / rc=2pass / mbtree=1 / bitrate=2780 / ratetol=1.0 / qcomp=0.60 / qpmin=10 / qpmax=69 / qpstep=4 / cplxblur=20.0 / qblur=0.5 / vbv_maxrate=50000 / vbv_bufsize=62500 / nal_hrd=none / filler=0 / ip_ratio=1.40 / aq=1:0.90
Language : English
Default : Yes
Forced : No
Audio #1
ID : 1
Format : MPEG Audio
Format version : Version 1
Format profile : Layer 3
Format settings : Joint stereo / MS Stereo
Codec ID : A_MPEG/L3
Codec ID/Hint : MP3
Duration : 1 h 57 min
Bit rate mode : Constant
Bit rate : 192 kb/s
Channel(s) : 2 channels
Sampling rate : 44.1 kHz
Frame rate : 38.281 FPS (1152 SPF)
Compression mode : Lossy
Stream size : 161 MiB (5%)
Title : O'zbek tilida @ A-Studio
Language : Uzbek
Default : Yes
Forced : Yes
Audio #2
ID : 3
Format : AC-3
Format/Info : Audio Coding 3
Codec ID : A_AC3
Duration : 1 h 57 min
Bit rate mode : Constant
Bit rate : 384 kb/s
Channel(s) : 6 channels
Channel positions : Front: L C R, Side: L R, LFE
Sampling rate : 48.0 kHz
Frame rate : 31.250 FPS (1536 SPF)
Bit depth : 16 bits
Compression mode : Lossy
Stream size : 323 MiB (10%)
Title : АС3 5.1 @ 384 kbps - Dub
Language : Russian
Service kind : Complete Main
Default : No
Forced : No
Audio #3
ID : 4
Format : AC-3
Format/Info : Audio Coding 3
Codec ID : A_AC3
Duration : 1 h 57 min
Bit rate mode : Constant
Bit rate : 384 kb/s
Channel(s) : 6 channels
Channel positions : Front: L C R, Side: L R, LFE
Sampling rate : 48.0 kHz
Frame rate : 31.250 FPS (1536 SPF)
Bit depth : 16 bits
Compression mode : Lossy
Stream size : 323 MiB (10%)
Title : АС3 5.1 @ 384 kbps - Original
Language : English
Service kind : Complete Main
Default : No
Forced : No
Text #1
ID : 5
Format : UTF-8
Codec ID : S_TEXT/UTF8
Codec ID/Info : UTF-8 Plain Text
Duration : 1 h 56 min
Bit rate : 90 b/s
Count of elements : 1648
Stream size : 76.9 KiB (0%)
Title : Full
Language : Russian
Default : No
Forced : No
Text #2
ID : 6
Format : UTF-8
Codec ID : S_TEXT/UTF8
Codec ID/Info : UTF-8 Plain Text
Duration : 1 h 50 min
Bit rate : 3 b/s
Count of elements : 84
Stream size : 3.17 KiB (0%)
Title : Forced
Language : Russian
Default : No
Forced : No
Text #3
ID : 7
Format : UTF-8
Codec ID : S_TEXT/UTF8
Codec ID/Info : UTF-8 Plain Text
Duration : 1 h 56 min
Bit rate : 103 b/s
Count of elements : 1587
Stream size : 88.4 KiB (0%)
Title : Full
Language : Ukrainian
Default : No
Forced : No
Text #4
ID : 8
Format : UTF-8
Codec ID : S_TEXT/UTF8
Codec ID/Info : UTF-8 Plain Text
Duration : 1 h 55 min
Bit rate : 3 b/s
Count of elements : 71
Stream size : 3.09 KiB (0%)
Title : Forced
Language : Ukrainian
Default : No
Forced : No
Text #5
ID : 9
Format : UTF-8
Codec ID : S_TEXT/UTF8
Codec ID/Info : UTF-8 Plain Text
Duration : 1 h 50 min
Bit rate : 66 b/s
Count of elements : 1619
Stream size : 53.7 KiB (0%)
Title : Full
Language : English
Default : No
Forced : No
Text #6
ID : 10
Format : UTF-8
Codec ID : S_TEXT/UTF8
Codec ID/Info : UTF-8 Plain Text
Duration : 1 h 51 min
Bit rate : 68 b/s
Count of elements : 1754
Stream size : 55.9 KiB (0%)
Title : Full SDH
Language : English
Default : No
Forced : No
Text #7
ID : 11
Format : UTF-8
Codec ID : S_TEXT/UTF8
Codec ID/Info : UTF-8 Plain Text
Duration : 2 min 7 s
Bit rate : 44 b/s
Count of elements : 30
Stream size : 701 Bytes (0%)
Title : Forced
Language : English
Default : No
Forced : No
Menu
00:00:00.000 : :Chapter 01
00:04:33.898 : :Chapter 03
00:08:51.739 : :Chapter 05
00:14:33.914 : :Chapter 07
00:17:01.603 : :Chapter 09
00:19:27.040 : :Chapter 11
00:21:52.936 : :Chapter 13
00:26:13.571 : :Chapter 15
00:30:47.971 : :Chapter 17
00:32:48.675 : :Chapter 19
00:36:12.378 : :Chapter 21
00:39:06.969 : :Chapter 23
00:43:03.497 : :Chapter 25
00:45:40.654 : :Chapter 27
00:52:10.377 : :Chapter 29
00:57:21.187 : :Chapter 31
01:01:23.888 : :Chapter 33
01:02:59.901 : :Chapter 35
01:06:05.920 : :Chapter 37
01:10:30.476 : :Chapter 39
01:13:26.527 : :Chapter 41
01:18:24.866 : :Chapter 43
01:21:56.202 : :Chapter 45
01:26:04.993 : :Chapter 47
01:28:06.906 : :Chapter 49
01:32:02.975 : :Chapter 51
01:35:52.955 : :Chapter 53
01:38:30.654 : :Chapter 55
01:41:30.751 : :Chapter 57
01:43:44.635 : :Chapter 59
01:46:41.561 : :Chapter 61
01:50:12.689 : :Chapter 63
01:57:28.958 : :Chapter 64

Lavhalar



So‘ngi marta tahrirlandi: Abdulloh (2018-02-03 11:40), Jami tahrirlangan 2 marta
Profil ShX

MRLG

Jins:
Yigit
Staj:
11 oy 6 kun
Xabarlar:
379
Taqiq:

1. Reliz shapkasida xatolik bor. Film nomi uch xil tilda yozilishi kerak.
2. Janr: Boyeviki, Kriminal, Fantastika. O'zbek tilida yozing janrlarni.
3. Формат видео: MKV bu yerda ham lotin alifbosidan foydalaning.

Mavzu yaratish 02-Fev-2018 13:27 (1 soat 14 daqiqa o‘tgach)

Iqitibos

Profil ShX
Xabarlarni ko‘rsatish:    

Hozirgi vaqt: 22-Iyul 19:08

Vaqtlar farqi: UTC + 5



Siz mavzu yaratishingiz mumkin emas
Siz xabarlarga javob qaytarishingiz mumkin emas
Siz o‘z xabarlaringizni tahrirlashingiz mumkin emas
Siz o‘z xabarlaringizni o‘chirishingiz mumkin emas
Siz so‘rovlarda ovoz berishingiz mumkin emas
Siz xabalarga fayllarni biriktirishingiz mumkin emas
Siz fayllarni ko‘chirishingiz mumkin emas