Tarqatmalar statistikasi
Ko‘chirib bo‘ldim: [ 2 ]
 
     
 
 

azizbek ®

Jins:
Yigit
Staj:
8 oy 5 kun
Xabarlar:
94

Qayerdan: Surxondaryo

Taqiq:

Robot qiz | Из машины | Ex Machina
-Qo'shimcha ma'lumot:
Davlat: AQSH
Janr: fantastika, triller, drama
Chiqqan yili: 2015
Davomiyligi: 1 soat 48 min-Tarjima: Ko'p ovozli kadr ortidan o'zbek tilida
Rejissiyor: Alex Garland-Rollarda: Domhnall Gleeson/Caleb , Alicia Vikander/Ava , Oscar Isaac/Nathan , Sonoya Mizuno/Kyoko , Corey Johnson/Jay , Claire Selby/Lily , Symara A. Templeman/Jasmine , Gana Bayarsaikhan/Jade , Tiffany Pisani/Katya , Elina Alminas/Amber (as Lina Alminas)-Tarif: Syujet markazida, yuqori texnologiyali ishlanmalarda boylik orttirgan milliarder tomonidan yollangan yosh yigit turadi. Xodimning vazifasi, bir hafta uzoq joyda, sun'iy aqlli robot ayolni sinovdan o'tkazishdir.-Videoning sifati: BDRip
Videoning formati: MP4-Video: HEVC / 1032x432 / 1 994 kb/s / 23.976 FPS
Audio: AAC / 128.0 kb/s / 2 channels / 48.0 kHz / 46.875 FPS-

MediaInfo

General
Complete name : D:\MEDIA\kino\uztreckers\ex_machina_2015_uzb.mp4
Format : MPEG-4
Format profile : Base Media
Codec ID : isom (isom/iso2/mp41)
File size : 508 MiB
Duration : 1 h 48 min
Overall bit rate : 657 kb/s
Movie name : Ex Machina (2015) - HELLYWOOD
Encoded date : UTC 2018-02-18 21:12:39
Tagged date : UTC 2018-02-18 21:12:39
Writing application : Lavf57.81.100
Video
ID : 1
Format : HEVC
Format/Info : High Efficiency Video Coding
Format profile : Main@L4.1@Main
Codec ID : hev1
Codec ID/Info : High Efficiency Video Coding
Duration : 1 h 47 min
Bit rate : 523 kb/s
Width : 1 032 pixels
Height : 432 pixels
Display aspect ratio : 2.40:1
Frame rate mode : Constant
Frame rate : 23.976 FPS
Color space : YUV
Chroma subsampling : 4:2:0
Bit depth : 8 bits
Scan type : Progressive
Bits/(Pixel*Frame) : 0.049
Stream size : 404 MiB (80%)
Writing library : x265 2.1:[Windows][MSVC 1800][32 bit] 8bit+10bit+12bit
Encoding settings : cpuid=1050111 / frame-threads=2 / numa-pools=4 / wpp / no-pmode / no-pme / no-psnr / no-ssim / log-level=2 / input-csp=1 / input-res=1032x432 / interlace=0 / total-frames=0 / level-idc=41 / high-tier=0 / uhd-bd=0 / ref=3 / no-allow-non-conformance / no-repeat-headers / annexb / no-aud / no-hrd / info / hash=0 / no-temporal-layers / no-open-gop / min-keyint=23 / keyint=239 / bframes=3 / b-adapt=2 / b-pyramid / bframe-bias=0 / rc-lookahead=20 / lookahead-slices=0 / scenecut=40 / no-intra-refresh / ctu=64 / min-cu-size=8 / no-rect / no-amp / max-tu-size=32 / tu-inter-depth=1 / tu-intra-depth=1 / limit-tu=0 / rdoq-level=0 / dynamic-rd=0.00 / no-ssim-rd / signhide / no-tskip / nr-intra=0 / nr-inter=0 / no-constrained-intra / strong-intra-smoothing / max-merge=2 / limit-refs=3 / no-limit-modes / me=1 / subme=2 / merange=57 / temporal-mvp / weightp / no-weightb / no-analyze-src-pics / deblock=0:0 / sao / no-sao-non-deblock / rd=3 / no-early-skip / rskip / no-fast-intra / no-tskip-fast / no-cu-lossless / no-b-intra / rdpenalty=0 / psy-rd=2.00 / psy-rdoq=0.00 / no-rd-refine / analysis-reuse-mode=0 / no-lossless / cbqpoffs=0 / crqpoffs=0 / rc=abr / bitrate=519 / qcomp=0.60 / qpstep=4 / stats-write=0 / stats-read=0 / vbv-maxrate=2400 / vbv-bufsize=20000 / vbv-init=0.9 / ipratio=1.40 / pbratio=1.30 / aq-mode=1 / aq-strength=1.00 / cutree / zone-count=0 / no-strict-cbr / qg-size=64 / no-rc-grain / qpmax=69 / qpmin=0 / no-const-vbv / sar=1 / overscan=0 / videoformat=5 / range=0 / colorprim=2 / transfer=2 / colormatrix=2 / chromaloc=0 / display-window=0 / max-cll=0,0 / min-luma=0 / max-luma=255 / log2-max-poc-lsb=8 / vui-timing-info / vui-hrd-info / slices=1 / opt-qp-pps / opt-ref-list-length-pps / no-multi-pass-opt-rps / scenecut-bias=0.05 / no-opt-cu-delta-qp / no-aq-motion / no-hdr / no-hdr-opt / no-dhdr10-opt / analysis-reuse-level=5 / scale-factor=0 / refine-intra=0 / refine-inter=0 / refine-mv=0 / no-limit-sao / ctu-info=0
Language : English
Encoded date : UTC 2018-02-18 21:12:39
Tagged date : UTC 2018-02-18 21:12:39
Audio
ID : 2
Format : AAC
Format/Info : Advanced Audio Codec
Format profile : LC
Codec ID : 40
Duration : 1 h 48 min
Bit rate mode : Constant
Bit rate : 128 kb/s
Channel(s) : 2 channels
Channel positions : Front: L R
Sampling rate : 48.0 kHz
Frame rate : 46.875 FPS (1024 SPF)
Compression mode : Lossy
Stream size : 98.9 MiB (19%)
Language : Uzbek
Default : Yes
Alternate group : 1
Encoded date : UTC 2018-02-18 21:12:39
Tagged date : UTC 2018-02-18 21:12:39
Profil ShX

vuelta

Jins:
Yigit
Staj:
11 oy 6 kun
Xabarlar:
284
Taqiq:

manashu yaxshi reliz bugan ham joyi kup ligi ham joyi kamligi bugani yaxshi keraklilar skachat qivoladi

Mavzu yaratish 20-Fev-2018 15:13 (20 soat o‘tgach)

Iqitibos

Profil ShX

BestBoy

Jins:
Yigit
Staj:
9 oy 17 kun
Xabarlar:
62
Taqiq:

Buyuk Britaniya emasmi?

Mavzu yaratish 03-Mar-2018 08:50 (10 kun o‘tgach)

Iqitibos

Profil ShX

azizbek ®

Jins:
Yigit
Staj:
8 oy 5 kun
Xabarlar:
94

Qayerdan: Surxondaryo

Taqiq:

1322Из машины
Shunday. Buyuk Britaniya ekan

Mavzu yaratish 03-Mar-2018 17:00 (8 soat o‘tgach)

Iqitibos

Profil ShX
Xabarlarni ko‘rsatish:    

Hozirgi vaqt: 22-Iyul 19:32

Vaqtlar farqi: UTC + 5



Siz mavzu yaratishingiz mumkin emas
Siz xabarlarga javob qaytarishingiz mumkin emas
Siz o‘z xabarlaringizni tahrirlashingiz mumkin emas
Siz o‘z xabarlaringizni o‘chirishingiz mumkin emas
Siz so‘rovlarda ovoz berishingiz mumkin emas
Siz xabalarga fayllarni biriktirishingiz mumkin emas
Siz fayllarni ko‘chirishingiz mumkin emas