Tarqatmalar statistikasi
Ko‘chirmoqdaman: [ 3 ]
Ko‘chirib bo‘ldim: [ 2 ]
 
     
 
 

azizbek ®

Jins:
Yigit
Staj:
8 oy 5 kun
Xabarlar:
94

Qayerdan: Surxondaryo

Taqiq:

Robot qiz | Из машины | Ex Machina
Qo'shimcha ma'lumot:
Davlat: AQSH
Janr: fantastika, triller, drama
Chiqqan yili: 2015
Davomiyligi: 1 soat 48 min
Tarjima: Professional
#eng - Orginal ovoz
#rus - Dyublaj
#uzb - Ko'p ovozli kadr ortidan
Rejissiyor: Alex Garland
Rollarda: Domhnall Gleeson/Caleb , Alicia Vikander/Ava , Oscar Isaac/Nathan , Sonoya Mizuno/Kyoko , Corey Johnson/Jay , Claire Selby/Lily , Symara A. Templeman/Jasmine , Gana Bayarsaikhan/Jade , Tiffany Pisani/Katya , Elina Alminas/Amber (as Lina Alminas)
Tarif: Syujet markazida, yuqori texnologiyali ishlanmalarda boylik orttirgan milliarder tomonidan yollangan yosh yigit turadi. Xodimning vazifasi, bir hafta uzoq joyda, sun'iy aqlli robot ayolni sinovdan o'tkazishdir.
Videoning sifati: BDRip
Videoning formati: MKV
Video: AVC / 1 994 kb/s / 23.976 FPS
Audio:
#eng->AC-3 / 448 kb/s / 6 channels / 48.0 kHz / 31.250 FPS
#rus->AC-3 / 448 kb/s / 6 channels / 48.0 kHz / 31.250 FPS
#uzb->MP3 / 96.0 kb/s / 2 channels / 44.1 kHz / 38.281 FPS

MediaInfo

General
Unique ID : 38743739764973248169107730588759562590 (0x1D25C5D9F659AAFBA36AEB3D8B79195E)
Complete name : D:\MEDIA\kino\uztreckers\ex_machina_2014_eng_rus_uzb.mkv
Format : Matroska
Format version : Version 4 / Version 2
File size : 2.25 GiB
Duration : 1 h 48 min
Overall bit rate : 2 985 kb/s
Movie name : Ex Machina (2015) - HELLYWOOD
Encoded date : UTC 2018-02-18 20:21:04
Writing application : mkvmerge v20.0.0 ('I Am The Sun') 64-bit
Writing library : libebml v1.3.5 + libmatroska v1.4.8
Video
ID : 1
Format : AVC
Format/Info : Advanced Video Codec
Format profile : High@L4.1
Format settings, CABAC : Yes
Format settings, RefFrames : 10 frames
Codec ID : V_MPEG4/ISO/AVC
Duration : 1 h 47 min
Bit rate : 1 994 kb/s
Width : 1 032 pixels
Height : 432 pixels
Display aspect ratio : 2.40:1
Frame rate mode : Constant
Frame rate : 23.976 FPS
Color space : YUV
Chroma subsampling : 4:2:0
Bit depth : 8 bits
Scan type : Progressive
Bits/(Pixel*Frame) : 0.187
Stream size : 1.50 GiB (67%)
Title : potroks
Writing library : x264 core 146 r2538 121396c
Encoding settings : cabac=1 / ref=10 / deblock=1:-2:-2 / analyse=0x3:0x113 / me=umh / subme=11 / psy=1 / psy_rd=0.99:0.00 / mixed_ref=1 / me_range=48 / chroma_me=1 / trellis=2 / 8x8dct=1 / cqm=0 / deadzone=21,11 / fast_pskip=0 / chroma_qp_offset=-2 / threads=12 / lookahead_threads=2 / sliced_threads=0 / nr=0 / decimate=0 / interlaced=0 / bluray_compat=0 / constrained_intra=0 / bframes=11 / b_pyramid=2 / b_adapt=2 / b_bias=0 / direct=3 / weightb=1 / open_gop=0 / weightp=2 / keyint=250 / keyint_min=23 / scenecut=40 / intra_refresh=0 / rc_lookahead=60 / rc=2pass / mbtree=0 / bitrate=1994 / ratetol=1.0 / qcomp=0.70 / qpmin=0 / qpmax=69 / qpstep=4 / cplxblur=20.0 / qblur=0.5 / vbv_maxrate=14000 / vbv_bufsize=14000 / nal_hrd=none / filler=0 / ip_ratio=1.35 / pb_ratio=1.25 / aq=1:0.80
Language : English
Default : Yes
Forced : No
Audio #1
ID : 2
Format : AC-3
Format/Info : Audio Coding 3
Format settings, Endianness : Big
Codec ID : A_AC3
Duration : 1 h 47 min
Bit rate mode : Constant
Bit rate : 448 kb/s
Channel(s) : 6 channels
Channel positions : Front: L C R, Side: L R, LFE
Sampling rate : 48.0 kHz
Frame rate : 31.250 FPS (1536 SPF)
Bit depth : 16 bits
Compression mode : Lossy
Stream size : 346 MiB (15%)
Title : Dub | DD 5.1 @ 448 kbps - Blu-Ray CEE
Language : Russian
Service kind : Complete Main
Default : Yes
Forced : No
Audio #2
ID : 3
Format : AC-3
Format/Info : Audio Coding 3
Format settings, Endianness : Big
Codec ID : A_AC3
Duration : 1 h 47 min
Bit rate mode : Constant
Bit rate : 448 kb/s
Channel(s) : 6 channels
Channel positions : Front: L C R, Side: L R, LFE
Sampling rate : 48.0 kHz
Frame rate : 31.250 FPS (1536 SPF)
Bit depth : 16 bits
Compression mode : Lossy
Stream size : 346 MiB (15%)
Title : Original | DD 5.1 @ 448 kbps
Language : English
Service kind : Complete Main
Default : No
Forced : No
Audio #3
ID : 10
Format : MPEG Audio
Format version : Version 1
Format profile : Layer 3
Codec ID : A_MPEG/L3
Codec ID/Hint : MP3
Duration : 1 h 48 min
Bit rate mode : Constant
Bit rate : 96.0 kb/s
Channel(s) : 2 channels
Sampling rate : 44.1 kHz
Frame rate : 38.281 FPS (1152 SPF)
Compression mode : Lossy
Stream size : 74.2 MiB (3%)
Language : Uzbek
Default : No
Forced : No
Text #1
ID : 4
Format : UTF-8
Codec ID : S_TEXT/UTF8
Codec ID/Info : UTF-8 Plain Text
Duration : 1 h 39 min
Bit rate : 65 b/s
Count of elements : 1058
Stream size : 47.5 KiB (0%)
Title : Blu-Ray
Language : Russian
Default : No
Forced : No
Text #2
ID : 5
Format : UTF-8
Codec ID : S_TEXT/UTF8
Codec ID/Info : UTF-8 Plain Text
Duration : 1 h 41 min
Bit rate : 65 b/s
Count of elements : 1149
Stream size : 48.7 KiB (0%)
Title : MаrtinаG
Language : Russian
Default : No
Forced : No
Text #3
ID : 6
Format : UTF-8
Codec ID : S_TEXT/UTF8
Codec ID/Info : UTF-8 Plain Text
Duration : 1 h 39 min
Bit rate : 60 b/s
Count of elements : 1058
Stream size : 43.8 KiB (0%)
Language : Ukrainian
Default : No
Forced : No
Text #4
ID : 7
Format : UTF-8
Codec ID : S_TEXT/UTF8
Codec ID/Info : UTF-8 Plain Text
Duration : 1 h 38 min
Bit rate : 48 b/s
Count of elements : 1248
Stream size : 34.7 KiB (0%)
Title : Full
Language : English
Default : No
Forced : No
Text #5
ID : 8
Format : UTF-8
Codec ID : S_TEXT/UTF8
Codec ID/Info : UTF-8 Plain Text
Duration : 1 h 38 min
Bit rate : 48 b/s
Count of elements : 1248
Stream size : 34.7 KiB (0%)
Title : SDH
Language : English
Default : No
Forced : No
Text #6
ID : 9
Format : UTF-8
Codec ID : S_TEXT/UTF8
Codec ID/Info : UTF-8 Plain Text
Duration : 1 h 40 min
Bit rate : 52 b/s
Count of elements : 1236
Stream size : 38.4 KiB (0%)
Title : SDH-Colored
Language : English
Default : No
Forced : No
Menu
00:00:00.000 : en:(01)00:00:00:000
00:04:34.940 : en:(02)00:04:34:940
00:11:16.634 : en:(03)00:11:16:634
00:15:08.157 : en:(04)00:15:08:157
00:23:38.750 : en:(05)00:23:38:750
00:31:57.999 : en:(06)00:31:57:999
00:36:05.163 : en:(07)00:36:05:163
00:40:26.757 : en:(08)00:40:26:757
00:45:56.378 : en:(09)00:45:56:378
00:53:28.954 : en:(10)00:53:28:954
01:00:26.079 : en:(11)01:00:26:079
01:04:01.253 : en:(12)01:04:01:253
01:07:19.076 : en:(13)01:07:19:076
01:13:22.021 : en:(14)01:13:22:021
01:16:56.110 : en:(15)01:16:56:110
01:21:36.515 : en:(16)01:21:36:515
01:27:36.832 : en:(17)01:27:36:832
01:32:54.149 : en:(18)01:32:54:149
01:38:51.006 : en:(19)01:38:51:006
01:42:26.931 : en:(20)01:42:26:931
01:48:00.640 : en:(21)01:48:00:640
Profil ShX
Xabarlarni ko‘rsatish:    

Hozirgi vaqt: 22-Iyul 19:39

Vaqtlar farqi: UTC + 5



Siz mavzu yaratishingiz mumkin emas
Siz xabarlarga javob qaytarishingiz mumkin emas
Siz o‘z xabarlaringizni tahrirlashingiz mumkin emas
Siz o‘z xabarlaringizni o‘chirishingiz mumkin emas
Siz so‘rovlarda ovoz berishingiz mumkin emas
Siz xabalarga fayllarni biriktirishingiz mumkin emas
Siz fayllarni ko‘chirishingiz mumkin emas