Tarqatmalar statistikasi
Yoʻq
 
     
 
 

Vampire_1987 ®

Jins:
Ko‘rsatilmagan
Staj:
1 yil
Xabarlar:
114
Taqiq:

--Salom New York | Салам, New York | Salam, New York!-- Davlat: Qirg'iziston
Janr: kulgi sahna asari, drama, melodrama
Chiqqan yili: 2013
Davomiyligi: 02:12:03
Tarjima: Dublyaj (Professional) [O'zbek Tilida]
Tarjima haqida qo'shimcha ma'lumot: Caravan-Tv--Rejissiyor: Ruslan Akun--Rollarda: Marina Beyn, Yuliya Daurova, Aleks Galper, Bektemir Mamayusupov, Yelena Marshall, Alex Mayzlin, Gebriel Sikel, Gary L. Taggart, Fred Timm, Aida Tulebaeva--Описание: Фильм повествует о приключениях парня из Кыргызстана в удивительном мегаполисе! Сможет ли он обрести любовь, дружбу, счастье, успех на чужбине? Через что приходится пройти, чтобы добиться своей мечты? Отправьтесь вместе с «Салам, New York» в незабываемое путешествие!-- --Sifat: TVRip
Format: AVI
Video: XviD 688x344 25fps 657kbps
Audio: MP3 48000Hz stereo 128kbps----

PS_LOG

PLATFORM
------------------------------
OS Code: Microsoft Windows NT 6.1.7601 Service Pack 1
OS Name: Windows 7 Professional Service Pack 1 (x64)
Framework: 2.0.50727.8762 (v4.0)
AviSynth: AviSynth 2.60, build:Feb 20 2015 [03:16:45]
CPU Info: Intel(R) Core(TM) i7-4820K CPU @ 3.70GHz (~3702), 8 core(s)
RAM Total: 32707Mb
Language: RUS (1251, ",")
SystemDrive: C:
XviD4PSP
------------------------------
Version: 5.10.346.0
Created: 12.02.2015 13:46:56
AppPath: C:\Program Files (x86)\XviD4PSP 5
TempPath: C:\Temp
FILES
------------------------------
Salom New Yorke.mpg >
Salom New Yorke.avi
TASK
------------------------------
Format: AVI Hardware
Duration: 02:12:02:520 (198063)
VideoDecoder: MPEG2Source
Resolution: 720x576 > 688x344
Aspect: 1.5118 > 2.0000
VCodecPreset: Custom
VEncodingMode: TwoPassSize
VideoCodec: MPEG2 > XviD (1.3.x)
Size: 6270.3 mb > 745.0 mb
Quality: 0.480 > 0.111
Framerate: 25.000
SourceType: INTERLACED
FieldOrder: TFF
Deinterlacer: Yadif
AudioDecoder: RaWavSource
AEncodingPreset: MP3 CBR 128k (HD)
AudioCodec: PCM > MP3
AudioBitrate: 1536 > 128
Samplerate: 48000
Channels: 2
Normalize: 100%
Accurate: 10%
Gain: 10.498
SCRIPT
------------------------------
Import("C:\Program Files (x86)\XviD4PSP 5\dlls\AviSynth\functions\AudioFunctions.avs")
Import("C:\Program Files (x86)\XviD4PSP 5\dlls\AviSynth\functions\VideoFunctions.avs")
LoadPlugin("C:\Program Files (x86)\XviD4PSP 5\apps\DGMPGDec\DGDecode.dll")
LoadPlugin("C:\Program Files (x86)\XviD4PSP 5\dlls\AviSynth\plugins\NicAudio.dll")
LoadCPlugin("C:\Program Files (x86)\XviD4PSP 5\dlls\AviSynth\plugins\yadif.dll")
video = MPEG2Source("L:\!\Salom New Yorke.index\Salom New Yorke.d2v", cpu=0, info=3)
audio = RaWavSource("L:\!\Salom New Yorke.index\Salom New Yorke Ta0 48K 16bit 2ch.wav", 0)
AudioDub(video, audio)
ConvertToYV12(interlaced = true)
Yadif(order=1)
###[FILTERING]###
###[FILTERING]###
Crop(0, 34, -0, -34)
Spline64Resize(688, 344)
AmplifydB(10.498)
AUDIO ENCODING
------------------------------
Encoding audio to: C:\Temp\0098.mp3
MP3 128kbps 2ch 16bit 48000khz
lame.exe: -m s -b 128 -q 0 --noreplaygain - "C:\Temp\0098.mp3"
VIDEO ENCODING
------------------------------
Encoding video to: C:\Temp\0098.avi
XviD (1.3.x) 658kbps 688x344 25.000fps (198063 frames)
...first pass...
xvid_encraw.exe: -pass1 "C:\Temp\0098_1.log" -qtype 1 -vhqmode 4 -metric 1 -zones 0,w,1.0,CO -nopacked -max_bframes 1 -max_key_interval 200 -threads 1 -i "C:\Temp\0098.avs" -o NUL
Tot: enctime(ms) =717150.00, length(bytes) = 1527725198
Avg: enctime(ms) = 3.62, fps = 276.18, length(bytes) = 7713
I frames: 2398 frames, size = 29217/70064182, quants = 2 / 2.00 / 2
P frames: 99272 frames, size = 12503/1241255354, quants = 2 / 2.00 / 2
B frames: 96393 frames, size = 2245/216405662, quants = 4 / 4.00 / 4
Trying to retrieve width and height from input header
xvidcore build version: xvid-1.4.0-dev
Bitstream version: 1.4.-127
Detected CPU flags: ASM MMX MMXEXT SSE SSE2 SSE3 SSE41 TSC
Detected 8 cpus, using 1 threads.
...last pass...
xvid_encraw.exe: -pass2 "C:\Temp\0098_1.log" -bitrate 658000 -qtype 1 -vhqmode 4 -metric 1 -zones 0,w,1.0,CO -nopacked -max_bframes 1 -max_key_interval 200 -oimprove 7 -odegrade 7 -chigh 7 -clow 7 -vbvmax 4854000 -vbvsize 3145728 -imin 1 -imax 5 -pmin 1 -pmax 5 -bmin 2 -bmax 6 -threads 1 -i "C:\Temp\0098.avs" -avi "C:\Temp\0098.avi"

Media Info

General
Complete name : C:\Users\admin\Documents\Salom New Yorke.avi
Format : AVI
Format/Info : Audio Video Interleave
File size : 751 MiB
Duration : 2 h 12 min
Overall bit rate : 795 kb/s
Writing application : VirtualDubMod 1.5.10.3 | www.virtualdub-fr.org || (build 2550/release)
Writing library : VirtualDubMod build 2550/release
Video
ID : 0
Format : MPEG-4 Visual
Format profile : Advanced Simple@L5
Format settings : BVOP1
Format settings, BVOP : 1
Format settings, QPel : No
Format settings, GMC : No warppoints
Format settings, Matrix : Default (MPEG)
Codec ID : XVID
Codec ID/Hint : XviD
Duration : 2 h 12 min
Bit rate : 658 kb/s
Width : 688 pixels
Height : 344 pixels
Display aspect ratio : 2.000
Frame rate : 25.000 FPS
Color space : YUV
Chroma subsampling : 4:2:0
Bit depth : 8 bits
Scan type : Progressive
Compression mode : Lossy
Bits/(Pixel*Frame) : 0.111
Stream size : 621 MiB (83%)
Writing library : XviD 73
Audio
ID : 1
Format : MPEG Audio
Format version : Version 1
Format profile : Layer 3
Codec ID : 55
Codec ID/Hint : MP3
Duration : 2 h 12 min
Bit rate mode : Constant
Bit rate : 128 kb/s
Channel(s) : 2 channels
Sampling rate : 48.0 kHz
Compression mode : Lossy
Stream size : 121 MiB (16%)
Alignment : Aligned on interleaves
Interleave, duration : 40 ms (1.00 video frame)
Interleave, preload duration : 504 ms
Writing library : LAME3.99r
Encoding settings : -m s -V 4 -q 0 -lowpass 17 -b 128
Profil ShX

Топик был перенесен из форума Vaqtinchalik в форум 2012-2016 yil kinofilmlari
Vampire_1987

Mavzu yaratish 22-Okt-2017 16:04 (43 soniya o‘tgach)

Xabarlarni ko‘rsatish:    

Hozirgi vaqt: 19-Sen 06:03

Vaqtlar farqi: UTC + 5



Siz mavzu yaratishingiz mumkin emas
Siz xabarlarga javob qaytarishingiz mumkin emas
Siz o‘z xabarlaringizni tahrirlashingiz mumkin emas
Siz o‘z xabarlaringizni o‘chirishingiz mumkin emas
Siz so‘rovlarda ovoz berishingiz mumkin emas
Siz xabalarga fayllarni biriktirishingiz mumkin emas
Siz fayllarni ko‘chirishingiz mumkin emas