Tarqatmalar statistikasi
Yoʻq
 
     
 
 

Javohir123 ®

Jins:
Yigit
Staj:
11 oy 21 kun
Xabarlar:
48
Taqiq:

Samolardan Balandda / Три метра над уровнем неба: Davlat:Ispaniya
Janr: Drama,Melodrama
Chiqqan yili: 2010
Davomiyligi: 02:02:46
-Перевод:Dublyaj (Professional) O'zbek tilida
Rejissiyor:Fernando Gonzalez Molina-
Rollarda:Mariya Valverde, Mario Casas, Nerea Camacho, Cervantes, Diego Álvaro Martín, Marina Salas, Clara P. De Mena, Andrea Duro, Marcel Borra, Pablo Rivero-Описание: История двух молодых людей, которые принадлежат к разным мирам. Баби — девушка из среднего класса, которая отображает доброту и невинность. Аче — мятежный мальчик, импульсивный, бессознательный, склонный к риску и опасности, ввязывающийся в бесконечные драки и нелегальные гонки на мотоциклах. Это маловероятно, практически невозможно, но их встреча неизбежна, и в этом неистовом путешествии между ними возникает первая большая любовь.-Качество видео: BDRip
Формат видео: MKV-Video: MPEG4 Video (H264) 1116x476 24fps / 1 778 kb/s
Audio: Dolby AC3 48000Hz 6ch Rus
Audio: Dolby AC3 48000Hz 6ch Esp
Audio: MP3 44100Hz stereo 128kbps Uzb

MediaInfo

General
Unique ID : 224863846912400063915887350309894929240 (0xA92B339D3A8D535FB96FA554706ABB58)
Format : Matroska
Format version : Version 4 / Version 2
File size : 2.30 GiB
Duration : 2 h 3 min
Overall bit rate : 2 667 kb/s
Movie name : 3.Metra.nad.ypovnem-2.18.nebachopper887
Encoded date : UTC 2017-09-02 13:35:12
Writing application : mkvmerge v9.2.0 ('Photograph') 64bit
Writing library : libebml v1.3.3 + libmatroska v1.4.4
Video
ID : 1
Format : AVC
Format/Info : Advanced Video Codec
Format profile : High@L4.1
Format settings, CABAC : Yes
Format settings, RefFrames : 10 frames
Codec ID : V_MPEG4/ISO/AVC
Duration : 2 h 2 min
Bit rate : 1 778 kb/s
Width : 1 116 pixels
Height : 476 pixels
Display aspect ratio : 2.35:1
Frame rate mode : Constant
Frame rate : 24.000 FPS
Color space : YUV
Chroma subsampling : 4:2:0
Bit depth : 8 bits
Scan type : Progressive
Bits/(Pixel*Frame) : 0.139
Stream size : 1.52 GiB (66%)
Title : 3.Metra.nad.ypovnem-2.18.nebachopper887
Writing library : x264 core 116 r2074 2641b9e
Encoding settings : cabac=1 / ref=10 / deblock=1:-2:-1 / analyse=0x3:0x133 / me=umh / subme=11 / psy=1 / psy_rd=1.00:0.10 / mixed_ref=1 / me_range=32 / chroma_me=1 / trellis=2 / 8x8dct=1 / cqm=0 / deadzone=21,11 / fast_pskip=0 / chroma_qp_offset=-3 / threads=12 / sliced_threads=0 / nr=0 / decimate=1 / interlaced=0 / bluray_compat=0 / constrained_intra=0 / bframes=7 / b_pyramid=2 / b_adapt=2 / b_bias=0 / direct=3 / weightb=1 / open_gop=0 / weightp=2 / keyint=250 / keyint_min=24 / scenecut=40 / intra_refresh=0 / rc_lookahead=80 / rc=2pass / mbtree=1 / bitrate=1778 / ratetol=1.0 / qcomp=0.60 / qpmin=0 / qpmax=69 / qpstep=4 / cplxblur=20.0 / qblur=0.5 / ip_ratio=1.40 / aq=1:1.00
Language : English
Default : Yes
Forced : No
Audio #1
ID : 2
Format : AC-3
Format/Info : Audio Coding 3
Format settings, Endianness : Big
Codec ID : A_AC3
Duration : 2 h 2 min
Bit rate mode : Constant
Bit rate : 384 kb/s
Channel(s) : 6 channels
Channel positions : Front: L C R, Side: L R, LFE
Sampling rate : 48.0 kHz
Frame rate : 31.250 FPS (1536 SPF)
Bit depth : 16 bits
Compression mode : Lossy
Stream size : 337 MiB (14%)
Title : Dub
Service kind : Complete Main
Default : Yes
Forced : No
Audio #2
ID : 3
Format : AC-3
Format/Info : Audio Coding 3
Format settings, Endianness : Big
Codec ID : A_AC3
Duration : 2 h 3 min
Bit rate mode : Constant
Bit rate : 384 kb/s
Channel(s) : 6 channels
Channel positions : Front: L C R, Side: L R, LFE
Sampling rate : 48.0 kHz
Frame rate : 31.250 FPS (1536 SPF)
Bit depth : 16 bits
Compression mode : Lossy
Stream size : 338 MiB (14%)
Title : Esp
Service kind : Complete Main
Default : No
Forced : No
Audio #3
ID : 4
Format : MPEG Audio
Format version : Version 1
Format profile : Layer 3
Mode : Joint stereo
Mode extension : MS Stereo
Codec ID : A_MPEG/L3
Codec ID/Hint : MP3
Duration : 2 h 2 min
Bit rate mode : Constant
Bit rate : 128 kb/s
Channel(s) : 2 channels
Sampling rate : 44.1 kHz
Frame rate : 38.281 FPS (1152 SPF)
Compression mode : Lossy
Stream size : 112 MiB (5%)
Writing library : LAMEЊ аlФЪњеlаP
Default : No
Forced : No


So‘ngi marta tahrirlandi: Javohir123 (2017-10-16 18:19), Jami tahrirlangan 1 marta
Profil ShX

Gr@nd

Jins:
Yigit
Staj:
11 oy 25 kun
Xabarlar:
150

Qayerdan: Jizzax Forish

Taqiq:

Javohir123, Shogirt Magnitka qani manba qani

Mavzu yaratish 16-Okt-2017 14:30 (37 daqiqa o‘tgach)

Iqitibos

Profil ShX

Javohir123 ®

Jins:
Yigit
Staj:
11 oy 21 kun
Xabarlar:
48
Taqiq:

Endi qanaqa

Mavzu yaratish 16-Okt-2017 18:21 (3 soat o‘tgach)

Iqitibos

Profil ShX

Vampire_1987

Jins:
Ko‘rsatilmagan
Staj:
1 yil
Xabarlar:
114
Taqiq:

Javohir123, Kino Toliq Ozbek Tilidami ? Yoki Boshidan Bir Necha Daqiqasi Yoqmi va Video Bit rate Kiritib Qoying

Mavzu yaratish 16-Okt-2017 18:44 (23 daqiqa o‘tgach)

Iqitibos

Profil ShX

Javohir123 ®

Jins:
Yigit
Staj:
11 oy 21 kun
Xabarlar:
48
Taqiq:

Vampir_1987 Boshida 2 daqiqasi rus tilida

Mavzu yaratish 16-Okt-2017 19:47 (1 soat 2 daqiqa o‘tgach)

Iqitibos

Profil ShX

nuriddin2012

Jins:
Ko‘rsatilmagan
Staj:
11 oy
Xabarlar:
2
Taqiq:

ha kinoni qoʻygandan keyin uni tarqatish kereda mavzuni ochib qoyib qochib yurmasdan kino oʻzidan oʻzi tarqalmedi, onlaynda turish kereda, 3 kun boʻpti qoʻyilganiga xali biror marta yuklanmapti.

Mavzu yaratish 20-Okt-2017 14:15 (3 kun o‘tgach)

Iqitibos

Profil ShX
Xabarlarni ko‘rsatish:    

Hozirgi vaqt: 21-Sen 05:14

Vaqtlar farqi: UTC + 5



Siz mavzu yaratishingiz mumkin emas
Siz xabarlarga javob qaytarishingiz mumkin emas
Siz o‘z xabarlaringizni tahrirlashingiz mumkin emas
Siz o‘z xabarlaringizni o‘chirishingiz mumkin emas
Siz so‘rovlarda ovoz berishingiz mumkin emas
Siz xabalarga fayllarni biriktirishingiz mumkin emas
Siz fayllarni ko‘chirishingiz mumkin emas