Tarqatmalar statistikasi
Yoʻq
 
     
 
 

Gr@nd ®

Jins:
Yigit
Staj:
11 oy 27 kun
Xabarlar:
150

Qayerdan: Jizzax Forish

Taqiq:


Savdoyi | Свет надежды / Tubelight
- -Davlat: Hindiston
Janr: Drama, jangari, istoriya
Chiqqan yili: 2017
Davomiyligi: 02:09:56-Tarjima: Professional (dublyaj qilingan) O'zbek tilida-Rejissiyor: Kabir Kxan-Rollarda: Salman Kxan, Chju Chju, Om Puri, Moxammеd Zishan Ayyub, Soxail Kxan, Yashpal Sharma, Paras Arora, Xasim Kxan, Shaxrukx Kxan-Описание: Shimoliy Hindistonning kichik chiroyli shahrida Lakshman ukasi Bharat bilan yashaydi. Lakshman - dunyodagi noyob ko'rinishga ega ekssentrik simpleton. U ko'pincha shaharning tor doirasidagi odamlarni masxara qilish uchun xizmat qiladi. Bharat birodarini juda himoyasiz va himoya qiladi va ularning aloqasi yanada chuqurlashadi. Hindiston-Xitoy chegarasidagi keskinlik o'z chegaralariga etganida, Bharat qo'shinda xizmat qilish uchun ketadi.-Videoning sifati: WEB-DLRip
Формат видео: MKV-Video: Xvid 720x304 24fps 2 118 Kbps
Audio: Dolby AC3 48000Hz 6ch Rus
Audio: MP3 48000Hz 2ch 128kbps Uzb
-

MediaInfo

General
Unique ID : 224217542450940693439842269110044100982 (0xA8AEBA5811879BE3A478010B35128976)
Format : Matroska
Format version : Version 4 / Version 2
File size : 2.26 GiB
Duration : 2h 9mn
Overall bit rate : 2 488 Kbps
Movie name : Xusan_Gr@nd
Encoded date : UTC 2017-11-10 18:39:50
Writing application : mkvmerge v6.8.0 ('Theme for Great Cities') 64bit built on Mar 2 2014 21:34:26
Writing library : libebml v1.3.0 + libmatroska v1.4.1
Video
ID : 1
Format : MPEG-4 Visual
Format profile : Advanced Simple@L5
Format settings, BVOP : Yes
Format settings, QPel : No
Format settings, GMC : No warppoints
Format settings, Matrix : Default (MPEG)
Codec ID : XVID
Codec ID/Hint : XviD
Duration : 2h 9mn
Bit rate : 2 118 Kbps
Width : 720 pixels
Height : 304 pixels
Display aspect ratio : 2.35:1
Frame rate : 24.000 fps
Color space : YUV
Chroma subsampling : 4:2:0
Bit depth : 8 bits
Scan type : Progressive
Compression mode : Lossy
Bits/(Pixel*Frame) : 0.403
Stream size : 1.92 GiB (85%)
Writing library : XviD 73
Default : Yes
Forced : No
Audio #1
ID : 2
Format : AC-3
Format/Info : Audio Coding 3
Mode extension : CM (complete main)
Format settings, Endianness : Big
Codec ID : A_AC3
Duration : 2h 9mn
Bit rate mode : Constant
Bit rate : 192 Kbps
Channel(s) : 2 channels
Channel positions : Front: L R
Sampling rate : 48.0 KHz
Bit depth : 16 bits
Compression mode : Lossy
Stream size : 178 MiB (8%)
Default : Yes
Forced : No
Audio #2
ID : 3
Format : MPEG Audio
Format version : Version 1
Format profile : Layer 3
Mode : Joint stereo
Mode extension : MS Stereo
Codec ID : A_MPEG/L3
Codec ID/Hint : MP3
Duration : 2h 9mn
Bit rate mode : Constant
Bit rate : 128 Kbps
Channel(s) : 2 channels
Sampling rate : 44.1 KHz
Compression mode : Lossy
Stream size : 119 MiB (5%)
Title : Xusan_Gr@nd
Writing library : LAME3.98.2
Language : Uzbek
Default : No
Forced : No


So‘ngi marta tahrirlandi: Gr@nd (2017-11-12 19:42), Jami tahrirlangan 1 marta
Profil ShX

Gr@nd ®

Jins:
Yigit
Staj:
11 oy 27 kun
Xabarlar:
150

Qayerdan: Jizzax Forish

Taqiq:

Kimga qanday bilmadim men ovoz qo'aoyotganimda qisman ko'rib juda tasirlandim

Mavzu yaratish 12-Noy-2017 19:39 (8 daqiqa o‘tgach)

Iqitibos

Profil ShX

Leo

Jins:
Ko‘rsatilmagan
Staj:
11 oy 16 kun
Xabarlar:
6
Taqiq:

84% tuhtab qoldi

Mavzu yaratish 17-Noy-2017 17:48 (4 kun o‘tgach)

Iqitibos

Profil ShX
Xabarlarni ko‘rsatish:    

Hozirgi vaqt: 23-Sen 11:16

Vaqtlar farqi: UTC + 5



Siz mavzu yaratishingiz mumkin emas
Siz xabarlarga javob qaytarishingiz mumkin emas
Siz o‘z xabarlaringizni tahrirlashingiz mumkin emas
Siz o‘z xabarlaringizni o‘chirishingiz mumkin emas
Siz so‘rovlarda ovoz berishingiz mumkin emas
Siz xabalarga fayllarni biriktirishingiz mumkin emas
Siz fayllarni ko‘chirishingiz mumkin emas