˂
˃
Tarqatmalar statistikasi
Ko‘chirmoqdaman: [ 1 ]
Ko‘chirib bo‘ldim: [ 21 ]
 
     
 
 

N.U.R.I.K.B.E.K ®

Jins:
Yigit
Staj:
1 yil 1 oy
Xabarlar:
340

Qayerdan: Jizzax. Paxtakor

Taqiq:

Sayyoh | Турист | The Tourist
--Chiqqan yili: 2010
Davlat: AQSH, Fransiya.
Janr: Triller, Drama.
Davomiyligi: 01:43:28
Tarjima:
Tarjima #1: Professional (Kinoteatr) O'zbek Tilida
Tarjima #2: Professional (litsenziya) Rus Tilida--Rejissyor: Florian Xenkel Fon Donnersmark.--Rollarda: Djonni Dep, Andjelina Djoli, Pol Bettani, Timoti Dalton, Rufus Syuell, Raul Bova, Ralf Myuller, Stiven Berkoff, Kleman Siboni, Igor Jijikin.--Tavsif: Amerikalik turist Frank Franklinning Italiyaga kelishi ruhiy jarohatni davolaydi. Venetsiyada u Eliza ismli g'ayrioddiy ayol bilan uchrashadi. Yaralangan yurak yangi sevgiliga taslim bo'lishga tayyor ko'rinadi. Biroq, Frank va Eliza rejalari hujumga va xavf-xatarlarga duchor bo'lmoqda.--Videoning sifati: HDRip 720p
Video format: MKV--Video: MPEG4 Video (H264) 1072x448 23.976fps 1 770 Kbps
Audio: MP3 48000Hz stereo 192kbps O'zbek Tili
Audio 2: Dolby AC3 48000Hz 6ch 5.1 448kbps Rus Tili--

Media Info

General
Format : Matroska
Format version : Version 4 / Version 2
File size : 1.74 GiB
Duration : 1h 43mn
Overall bit rate : 2 411 Kbps
Video
ID : 1
Format : AVC
Format/Info : Advanced Video Codec
Format profile : High@L3.1
Format settings, CABAC : Yes
Format settings, ReFrames : 5 frames
Codec ID : V_MPEG4/ISO/AVC
Duration : 1h 43mn
Bit rate : 1 770 Kbps
Width : 1 072 pixels
Height : 448 pixels
Display aspect ratio : 2.40:1
Frame rate mode : Constant
Frame rate : 23.976 fps
Color space : YUV
Chroma subsampling : 4:2:0
Bit depth : 8 bits
Scan type : Progressive
Bits/(Pixel*Frame) : 0.154
Stream size : 1.25 GiB (71%)
Title : Turist.2010.D.HDRip.x264.potroks
Writing library : x264 core 112 r1834 a51816a
Language : English
Default : Yes
Forced : No
Audio #1
ID : 2
Format : MPEG Audio
Format version : Version 1
Format profile : Layer 3
Mode : Joint stereo
Mode extension : MS Stereo
Codec ID : A_MPEG/L3
Codec ID/Hint : MP3
Duration : 1h 43mn
Bit rate mode : Constant
Bit rate : 192 Kbps
Channel(s) : 2 channels
Sampling rate : 48.0 KHz
Compression mode : Lossy
Stream size : 142 MiB (8%)
Title : O'zbek Tili
Default : Yes
Forced : No
Audio #2
ID : 3
Format : AC-3
Format/Info : Audio Coding 3
Mode extension : CM (complete main)
Format settings, Endianness : Big
Codec ID : A_AC3
Duration : 1h 43mn
Bit rate mode : Constant
Bit rate : 448 Kbps
Channel(s) : 6 channels
Channel positions : Front: L C R, Side: L R, LFE
Sampling rate : 48.0 KHz
Compression mode : Lossy
Stream size : 332 MiB (19%)
Title : Rus Tili
Language : Russian
Default : No
Forced : No

Mineatura

LAVHALAR
Profil ShX

NeoLit

Jins:
Ko‘rsatilmagan
Staj:
8 oy 7 kun
Xabarlar:
3
Taqiq:

N.U.R.I.K.B.E.K, rasmdagi aktyorlarni ismlari almashib qopti

Mavzu yaratish 29-Sen-2018 15:52 (18 soat o‘tgach)

Iqitibos

Profil ShX

N.U.R.I.K.B.E.K ®

Jins:
Yigit
Staj:
1 yil 1 oy
Xabarlar:
340

Qayerdan: Jizzax. Paxtakor

Taqiq:

NeoLit, internetdan ogandim etibor bermapman

Mavzu yaratish 29-Sen-2018 16:15 (22 daqiqa o‘tgach)

Iqitibos

Profil ShX
Xabarlarni ko‘rsatish:    

Hozirgi vaqt: 11-Dek 20:37

Vaqtlar farqi: UTC + 5



Siz mavzu yaratishingiz mumkin emas
Siz xabarlarga javob qaytarishingiz mumkin emas
Siz o‘z xabarlaringizni tahrirlashingiz mumkin emas
Siz o‘z xabarlaringizni o‘chirishingiz mumkin emas
Siz so‘rovlarda ovoz berishingiz mumkin emas
Siz xabalarga fayllarni biriktirishingiz mumkin emas
Siz fayllarni ko‘chirishingiz mumkin emas