˂
˃
Tarqatmalar statistikasi
Yoʻq
 
     
 
 

_-KIRA-_ ®

Jins:
Ko‘rsatilmagan
Staj:
1 yil 3 oy
Xabarlar:
3
Taqiq:

-Seherli diyor / Волшебная страна / Finding Neverland-
Davlat: AQSH, Buyuk Britaniya
Janr: Drama, oilaviy, biografiya
Chiqqan yili: 2004
Davomiyligi: 01:41:05--Tarjima: Professional (Kop ovozli kadrorti )
Tarjima 2: Professional (Kop ovozli kadrorti )
Tarjima 3: Professional (Kop ovozli kadrorti )
Subtitr: Ingliz va Rus tillarida
Haqiqiy ovozi: ingliz tilida-Rejissiyor: Marc Forster
Rollarda: Johnny Depp, Keith Winslet, Freddie Highmore, Julie Christie, Rada Mitchell, Dustin Hoffman, Ian Hart, Kelly McDonald, Mackenzie Crook, Eileen Essel-Tavsif: Omadsiz yozuvchi J. Metyu Barri London konservativ qonunlariga bo'ysunmaydigan va yolg'iz beva ayolning do'sti bo`lib, shuningdek, to'rtta kichik o'g'lining otasi bo'ladi. Yangi oila unga ilhom baxsh etadi. yozuvchi bola qahramoni Piter Pan va o'sishni istamagan bolalar haqida ajoyib ertak yaratadi.

Video Kachestva: BDRip
Video Format: MKV-Video: 1280x544 (2.35:1), 23.976 fps, AVC, ~4800 kbps avg
Audio: Uzbek, 48 kHz, DTS, 3/2, ~768.00 kbps avg |Professional Dublyaj|
Audio 2: Russian, 48 kHz, DTS, 3/2, ~768.00 kbps avg |Professional Dublyaj|
Audio 3: English, 48 kHz, DTS, 3/2, ~768.00 kbps avg |Professional Dublyaj|
Subtitr Format: softsub (SRT)

MediaInfo

General
Unique ID : 230612488815619661530045579790428301284 (0xAD7E598AEAF283E8B67FB5B9349267E4)
Complete name : E:\kino\Sehirli diyor.Finding Neverland.720p [_-KIRA-_].mkv
Format : Matroska
Format version : Version 4 / Version 2
File size : 4.96 GiB
Duration : 1h 41mn
Overall bit rate : 7 023 Kbps
Encoded date : UTC 2015-01-25 08:49:18
Writing application : mkvmerge v6.2.0 ('Promised Land') built on Apr 28 2013 12:22:01
Writing library : libebml v1.3.0 + libmatroska v1.4.0
Video #1
ID : 1
Format : AVC
Format/Info : Advanced Video Codec
Format profile : High@L5.1
Format settings, CABAC : Yes
Format settings, ReFrames : 8 frames
Format settings, GOP : N=1
Codec ID : V_MPEG4/ISO/AVC
Duration : 1h 41mn
Bit rate : 5 548 Kbps
Width : 1 280 pixels
Height : 544 pixels
Display aspect ratio : 2.35:1
Frame rate mode : Constant
Frame rate : 23.976 fps
Color space : YUV
Chroma subsampling : 4:2:0
Bit depth : 8 bits
Scan type : Progressive
Bits/(Pixel*Frame) : 0.332
Stream size : 3.82 GiB (77%)
Title : Finding Neverland
Writing library : x264 core 54 svn-614
Encoding settings : cabac=1 / ref=5 / deblock=1:-3:-3 / analyse=0x3:0x133 / me=umh / subme=7 / brdo=0 / mixed_ref=1 / me_range=16 / chroma_me=1 / trellis=1 / 8x8dct=1 / cqm=2 / deadzone=21,11 / chroma_qp_offset=0 / threads=3 / nr=0 / decimate=0 / mbaff=0 / bframes=3 / b_pyramid=1 / b_adapt=1 / b_bias=0 / direct=3 / wpredb=1 / bime=1 / keyint=240 / keyint_min=24 / scenecut=40(pre) / rc=2pass / bitrate=5548 / ratetol=1.0 / rceq='blurCplx^(1-qComp)' / qcomp=0.60 / qpmin=10 / qpmax=51 / qpstep=4 / cplxblur=20.0 / qblur=0.5 / ip_ratio=1.40 / pb_ratio=1.30
Language : English
Default : Yes
Forced : No
Audio #2
ID : 2
Format : AC-3
Format/Info : Audio Coding 3
Mode extension : CM (complete main)
Format settings, Endianness : Big
Codec ID : A_AC3
Duration : 1h 41mn
Bit rate mode : Constant
Bit rate : 640 Kbps
Channel(s) : 6 channels
Channel positions : Front: L C R, Side: L R, LFE
Sampling rate : 48.0 KHz
Bit depth : 16 bits
Compression mode : Lossy
Stream size : 463 MiB (9%)
Title : Rus tilida, Dublyaj
Language : Russian
Default : Yes
Forced : No
Audio #3
ID : 3
Format : MPEG Audio
Format version : Version 1
Format profile : Layer 3
Mode : Joint stereo
Mode extension : MS Stereo
Codec ID : A_MPEG/L3
Codec ID/Hint : MP3
Duration : 1h 41mn
Bit rate mode : Constant
Bit rate : 192 Kbps
Channel(s) : 2 channels
Sampling rate : 44.1 KHz
Compression mode : Lossy
Stream size : 139 MiB (3%)
Title : O`zbek tilida, Yoshlar [_-KIRA-_]
Writing library : LAME3.99.5
Language : Uzbek
Default : No
Forced : No
Audio #4
ID : 4
Format : AC-3
Format/Info : Audio Coding 3
Mode extension : CM (complete main)
Format settings, Endianness : Big
Codec ID : A_AC3
Duration : 1h 41mn
Bit rate mode : Constant
Bit rate : 640 Kbps
Channel(s) : 6 channels
Channel positions : Front: L C R, Side: L R, LFE
Sampling rate : 48.0 KHz
Bit depth : 16 bits
Compression mode : Lossy
Stream size : 463 MiB (9%)
Title : Ingliz tilida, Orginal
Language : English
Default : No
Forced : No
Text #5
ID : 5
Format : UTF-8
Codec ID : S_TEXT/UTF8
Codec ID/Info : UTF-8 Plain Text
Title : Русский
Language : Russian
Default : Yes
Forced : No
Text #6
ID : 6
Format : UTF-8
Codec ID : S_TEXT/UTF8
Codec ID/Info : UTF-8 Plain Text
Title : English
Language : English
Default : No
Forced : No

Profil ShX
Xabarlarni ko‘rsatish:    

Hozirgi vaqt: 21-Noy 18:48

Vaqtlar farqi: UTC + 5



Siz mavzu yaratishingiz mumkin emas
Siz xabarlarga javob qaytarishingiz mumkin emas
Siz o‘z xabarlaringizni tahrirlashingiz mumkin emas
Siz o‘z xabarlaringizni o‘chirishingiz mumkin emas
Siz so‘rovlarda ovoz berishingiz mumkin emas
Siz xabalarga fayllarni biriktirishingiz mumkin emas
Siz fayllarni ko‘chirishingiz mumkin emas