˂
˃
Tarqatmalar statistikasi
Ko‘chirmoqdaman: [ 1 ]
Ko‘chirib bo‘ldim: [ 6 ]
 
     
 
 

Dj.Max ®

Jins:
Yigit
Staj:
5 oy 22 kun
Xabarlar:
23

Qayerdan: Farg'ona

Taqiq:

SEVGIMIZ UCHUN-- Chiqqan yili: 2018
Davlat: O'zbekiston
Janr: Oilaviy, dramma, melodramma
Davomiyligi: 01:48:36
Tarjima: Talab etilmaydi--Rejissyor: Suxrob Xasanov--Rollarda: Suxrob Xasanov, Saida Rametova, Vasilika Sibirova, Umid Shodmonov, Zilola Nabieva, Botir Muhammadjonov--Tavsif: Topib yozib qo'yaman.--Sifat: WEBRip 720p, 360p
Format: MP4
Video: MPEG4 Video (H264) 1280x720 25fps 676kbps
Audio: AAC 44100Hz stereo 125kbps--

Media Info

General
Complete name                  Sevgimiz uchun (o'zbek film).mp4
Format                         : MPEG-4
Format profile                 : Base Media / Version 2
Codec ID                       : mp42 (isom/mp42)
File size                      : 625 MiB
Duration                       : 1 h 48 min
Overall bit rate mode          : Variable
Overall bit rate               : 805 kb/s
Encoded date                   : UTC 2018-09-20 17:44:42
Tagged date                    : UTC 2018-09-20 17:44:42
gsst                           : 0
gstd                           : 6516192
Video
ID                             : 1
Format                         : AVC
Format/Info                    : Advanced Video Codec
Format profile                 : Main@L3.1
Format settings                : CABAC / 3 Ref Frames
Format settings, CABAC         : Yes
Format settings, ReFrames      : 3 frames
Codec ID                       : avc1
Codec ID/Info                  : Advanced Video Coding
Duration                       : 1 h 48 min
Bit rate                       : 676 kb/s
Width                          : 1 280 pixels
Height                         : 720 pixels
Display aspect ratio           : 16:9
Frame rate mode                : Constant
Frame rate                     : 25.000 FPS
Color space                    : YUV
Chroma subsampling             : 4:2:0
Bit depth                      : 8 bits
Scan type                      : Progressive
Bits/(Pixel*Frame)             : 0.029
Stream size                    : 525 MiB (84%)
Title                          : ISO Media file produced by Google Inc. Created on: 09/20/2018.
Encoded date                   : UTC 2018-09-20 17:44:42
Tagged date                    : UTC 2018-09-20 17:44:42
Color range                    : Limited
Color primaries                : BT.709
Transfer characteristics       : BT.709
Matrix coefficients            : BT.709
Audio
ID                             : 2
Format                         : AAC
Format/Info                    : Advanced Audio Codec
Format profile                 : LC
Codec ID                       : mp4a-40-2
Duration                       : 1 h 48 min
Bit rate mode                  : Variable
Bit rate                       : 126 kb/s
Channel(s)                     : 2 channels
Channel positions              : Front: L R
Sampling rate                  : 44.1 kHz
Frame rate                     : 43.066 FPS (1024 SPF)
Compression mode               : Lossy
Stream size                    : 97.6 MiB (16%)
Title                          : ISO Media file produced by Google Inc. Created on: 09/20/2018.
Language                       : English
Encoded date                   : UTC 2018-09-20 17:44:42
Tagged date                    : UTC 2018-09-20 17:44:42
Profil ShX
Xabarlarni ko‘rsatish:    

Hozirgi vaqt: 11-Dek 04:15

Vaqtlar farqi: UTC + 5



Siz mavzu yaratishingiz mumkin emas
Siz xabarlarga javob qaytarishingiz mumkin emas
Siz o‘z xabarlaringizni tahrirlashingiz mumkin emas
Siz o‘z xabarlaringizni o‘chirishingiz mumkin emas
Siz so‘rovlarda ovoz berishingiz mumkin emas
Siz xabalarga fayllarni biriktirishingiz mumkin emas
Siz fayllarni ko‘chirishingiz mumkin emas