˂
˃
Tarqatmalar statistikasi
Yoʻq
 
     
 
 

Javohir123 ®

Jins:
Yigit
Staj:
1 yil 1 oy
Xabarlar:
48
Taqiq:

Sfera / Сфера / The Circle- Davlat: AQSH,Birlashgan Arab Amirliklari
Janr: Fantastik,Triller,Drama
Chiqqan yili: 2017
Davomiyligi: 01:49:26-Перевод: Профессиональный (дублированный) O'zbek tilida
Rejissiyor: Jeyms Ponsoldt-Rollarda: Karen Gillan, Emma Watson, Tom Hanks, Jon Boyer, Ellar Coltrane, Ellen Vong, Bill Paxton, Patton Oswalt, Glenn Headley, Purna Jagannatath-Описание: Фильм расскажет об интернет-компании The Circle, объединяющей в единую систему электронную почту своих пользователей, странички в социальных сетях, информацию о банковских картах и покупках. Результатом этого процесса становится получение человеком универсального онлайн-идентификатора. Но на практике не все так гладко: проект, позиционируемый как новая ступень в развитии технологий, преследует и другие, более грязные цели.-Качество видео: HDRip
Формат видео: MKV-Video: MPEG4 Video (H264) 1920x1080 23.976fps [V: CIRCLE_WEB_DL_1080p-BLUEBIRD (h264 main L4.0, yuv420p
Audio: Dolby AC3 48000Hz stereo 192kbps Rus
Audio: MP3 44100Hz stereo 320kbps Uzb

MediaInfo

General
Unique ID : 208107456570944320757519231528644132499 (0x9C9009C92E4653D694256E3587B83E93)
Complete name :
Format : Matroska
Format version : Version 4 / Version 2
File size : 4.59 GiB
Duration : 1 h 49 min
Overall bit rate mode : Variable
Overall bit rate : 5 999 kb/s
Movie name : CIRCLE_WEB_DL_1080p-BLUEBIRD
Encoded date : UTC 2017-07-19 20:27:08
Writing application : mkvmerge v9.2.0 ('Photograph') 32bit
Writing library : libebml v1.3.3 + libmatroska v1.4.4
Video
ID : 1
Format : AVC
Format/Info : Advanced Video Codec
Format profile : Main@L4
Format settings, CABAC : Yes
Format settings, RefFrames : 3 frames
Codec ID : V_MPEG4/ISO/AVC
Duration : 1 h 49 min
Bit rate mode : Variable
Bit rate : 5 110 kb/s
Maximum bit rate : 7 665 kb/s
Width : 1 920 pixels
Height : 1 080 pixels
Display aspect ratio : 16:9
Frame rate mode : Constant
Frame rate : 23.976 (24000/1001) FPS
Color space : YUV
Chroma subsampling : 4:2:0
Bit depth : 8 bits
Scan type : Progressive
Bits/(Pixel*Frame) : 0.103
Stream size : 3.90 GiB (85%)
Title : CIRCLE_WEB_DL_1080p-BLUEBIRD
Writing library : x264 core 118
Encoding settings : cabac=1 / ref=3 / deblock=1:0:0 / analyse=0x1:0x111 / me=umh / subme=10 / psy=1 / psy_rd=1.00:0.00 / mixed_ref=1 / me_range=24 / chroma_me=1 / trellis=2 / 8x8dct=0 / cqm=0 / deadzone=21,11 / fast_pskip=1 / chroma_qp_offset=-2 / threads=8 / sliced_threads=0 / nr=0 / decimate=1 / interlaced=0 / bluray_compat=0 / constrained_intra=0 / bframes=2 / b_pyramid=0 / b_adapt=2 / b_bias=0 / direct=3 / weightb=1 / open_gop=0 / weightp=2 / keyint=48 / keyint_min=25 / scenecut=0 / intra_refresh=0 / rc_lookahead=0 / rc=2pass / mbtree=1 / bitrate=5110 / ratetol=1.0 / qcomp=0.50 / qpmin=6 / qpmax=51 / qpstep=4 / cplxblur=20.0 / qblur=0.5 / vbv_maxrate=7665 / vbv_bufsize=10220 / nal_hrd=vbr / ip_ratio=1.40 / aq=1:1.00
Default : Yes
Forced : No
Audio #1
ID : 2
Format : AC-3
Format/Info : Audio Coding 3
Mode : Dolby Digital
Format settings, Endianness : Big
Codec ID : A_AC3
Duration : 1 h 49 min
Bit rate mode : Constant
Bit rate : 192 kb/s
Channel(s) : 2 channels
Channel positions : Front: L R
Sampling rate : 48.0 kHz
Frame rate : 31.250 FPS (1536 SPF)
Bit depth : 16 bits
Compression mode : Lossy
Stream size : 150 MiB (3%)
Title : [DUB] DD 2.0 @ 192 kbps
Language : Russian
Service kind : Complete Main
Default : No
Forced : No
Audio #2
ID : 3
Format : AC-3
Format/Info : Audio Coding 3
Format settings, Endianness : Big
Codec ID : A_AC3
Duration : 1 h 49 min
Bit rate mode : Constant
Bit rate : 384 kb/s
Channel(s) : 6 channels
Channel positions : Front: L C R, Side: L R, LFE
Sampling rate : 48.0 kHz
Frame rate : 31.250 FPS (1536 SPF)
Bit depth : 16 bits
Compression mode : Lossy
Stream size : 301 MiB (6%)
Title : [ORIGINAL] DD 5.1 @ 384 kbps
Language : English
Service kind : Complete Main
Default : No
Forced : No
Audio #3
ID : 4
Format : MPEG Audio
Format version : Version 1
Format profile : Layer 3
Mode : Joint stereo
Mode extension : MS Stereo
Codec ID : A_MPEG/L3
Codec ID/Hint : MP3
Duration : 1 h 49 min
Bit rate mode : Constant
Bit rate : 320 kb/s
Channel(s) : 2 channels
Sampling rate : 44.1 kHz
Frame rate : 38.281 FPS (1152 SPF)
Compression mode : Lossy
Stream size : 250 MiB (5%)
Title : Fe@rLeSs
Writing library : LAME3.99.5
Language : Uzbek
Default : Yes
Forced : No


So‘ngi marta tahrirlandi: Javohir123 (2017-10-22 11:22), Jami tahrirlangan 2 marta
Profil ShX

Gr@nd

Jins:
Yigit
Staj:
1 yil 1 oy
Xabarlar:
158

Qayerdan: Jizzax Forish

Taqiq:

Javohir123, Shogirtcha

Mavzu yaratish 16-Okt-2017 09:13 (8 soat o‘tgach)

Iqitibos

Profil ShX

Gr@nd

Jins:
Yigit
Staj:
1 yil 1 oy
Xabarlar:
158

Qayerdan: Jizzax Forish

Taqiq:

Javohir123, Скриншоты markazga qilsang chiroyli chiqadi Video: MPEG4 Video (H264) 1920x1080 23.976fps [V: CIRCLE_WEB_DL_1080p-BLUEBIRD (h264 main L4.0, yuv420p qoradagisi shart mas

Mavzu yaratish 16-Okt-2017 09:14 (1 daqiqa o‘tgach)

Iqitibos

Profil ShX
Xabarlarni ko‘rsatish:    

Hozirgi vaqt: 15-Noy 11:44

Vaqtlar farqi: UTC + 5



Siz mavzu yaratishingiz mumkin emas
Siz xabarlarga javob qaytarishingiz mumkin emas
Siz o‘z xabarlaringizni tahrirlashingiz mumkin emas
Siz o‘z xabarlaringizni o‘chirishingiz mumkin emas
Siz so‘rovlarda ovoz berishingiz mumkin emas
Siz xabalarga fayllarni biriktirishingiz mumkin emas
Siz fayllarni ko‘chirishingiz mumkin emas