˂
˃
Tarqatmalar statistikasi
Yoʻq
 
     
 
 

Javohir123 ®

Jins:
Yigit
Staj:
1 yil 1 oy
Xabarlar:
48
Taqiq:

--Shanxaylik eltuvchi | Шанхайский перевозчик | S.M.A.R.T. Chase-- Davlat: Xitoy,AQSH
Janr: Jangari,Kulguli,Sarguzasht
Chiqqan yili: 2017
Davomiyligi: 01:29:43-Tarjima: Professional (dublyaj qilingan) O'zbek Tilida
Rejissiyor: Charlz Martin-Rollarda: Orlando Bloom, Wu Lei, Simon Yam, Lin Xun, Xanna Quinlivan, Xing Yu, Tom Price, Liang Jing, Ying Da, Chang Rong-Tarjima: Xususiy xavfsizlik agenti Shanxay antikvarlari bilan posilkani birga yuboradi va yo'l bo'ylab pistirma uyushtiriladi.- -Videoning sifati: WEB-DL
Формат видео: MKV-Video: MPEG4 Video (H264) 1920x802 25fps
Audio: Dolby AC3 48000Hz 6ch 384kbps Rus
Audio: MP3 44100Hz stereo 128kbps Uzb-

MediaInfo

General
Unique ID : 202496928257258889819795179496031759809 (0x98577D621269E84689339C35AA31ADC1)
Complete name :
Format : Matroska
Format version : Version 4 / Version 2
File size : 3.16 GiB
Duration : 1 h 29 min
Overall bit rate : 5 051 kb/s
Encoded date : UTC 2017-11-25 12:47:09
Writing application : mkvmerge v9.2.0 ('Photograph') 64bit
Writing library : libebml v1.3.3 + libmatroska v1.4.4
Video
ID : 1
Format : AVC
Format/Info : Advanced Video Codec
Format profile : High@L4
Format settings, CABAC : Yes
Format settings, RefFrames : 5 frames
Codec ID : V_MPEG4/ISO/AVC
Duration : 1 h 29 min
Bit rate : 4 537 kb/s
Width : 1 920 pixels
Height : 802 pixels
Display aspect ratio : 2.40:1
Frame rate mode : Constant
Frame rate : 25.000 FPS
Color space : YUV
Chroma subsampling : 4:2:0
Bit depth : 8 bits
Scan type : Progressive
Bits/(Pixel*Frame) : 0.118
Stream size : 2.84 GiB (90%)
Language : English
Default : Yes
Forced : No
Color range : Limited
Color primaries : BT.709
Transfer characteristics : BT.709
Matrix coefficients : BT.709
Audio #1
ID : 2
Format : AC-3
Format/Info : Audio Coding 3
Format settings, Endianness : Big
Codec ID : A_AC3
Duration : 1 h 29 min
Bit rate mode : Constant
Bit rate : 384 kb/s
Channel(s) : 6 channels
Channel positions : Front: L C R, Side: L R, LFE
Sampling rate : 48.0 kHz
Frame rate : 31.250 FPS (1536 SPF)
Bit depth : 16 bits
Compression mode : Lossy
Stream size : 246 MiB (8%)
Language : Russian
Service kind : Complete Main
Default : Yes
Forced : No
Audio #2
ID : 3
Format : MPEG Audio
Format version : Version 1
Format profile : Layer 3
Mode : Joint stereo
Mode extension : MS Stereo
Codec ID : A_MPEG/L3
Codec ID/Hint : MP3
Duration : 1 h 29 min
Bit rate mode : Constant
Bit rate : 128 kb/s
Channel(s) : 2 channels
Sampling rate : 44.1 kHz
Frame rate : 38.281 FPS (1152 SPF)
Compression mode : Lossy
Stream size : 82.1 MiB (3%)
Title : Javohir
Language : Uzbek
Default : No
Forced : No
Profil ShX

BestBoy

Jins:
Yigit
Staj:
1 yil 1 oy
Xabarlar:
63
Taqiq:

film to'liqmi?

Mavzu yaratish 01-Dek-2017 10:33 (5 kun o‘tgach)

Iqitibos

Profil ShX

Javohir123 ®

Jins:
Yigit
Staj:
1 yil 1 oy
Xabarlar:
48
Taqiq:

to'liq

Mavzu yaratish 01-Dek-2017 19:16 (8 soat o‘tgach)

Iqitibos

Profil ShX

begzod

Jins:
Ko‘rsatilmagan
Staj:
11 oy 18 kun
Xabarlar:
2
Taqiq:

men bu kinoni ko'chira olmayapman yordam berib yuborilar qandey ko'chiriladi

Mavzu yaratish 05-Dek-2017 09:57 (3 kun o‘tgach)

Iqitibos

Profil ShX
Xabarlarni ko‘rsatish:    

Hozirgi vaqt: 21-Noy 19:35

Vaqtlar farqi: UTC + 5



Siz mavzu yaratishingiz mumkin emas
Siz xabarlarga javob qaytarishingiz mumkin emas
Siz o‘z xabarlaringizni tahrirlashingiz mumkin emas
Siz o‘z xabarlaringizni o‘chirishingiz mumkin emas
Siz so‘rovlarda ovoz berishingiz mumkin emas
Siz xabalarga fayllarni biriktirishingiz mumkin emas
Siz fayllarni ko‘chirishingiz mumkin emas