˂
˃
Tarqatmalar statistikasi
Ko‘chirmoqdaman: [ 3 ]
Ko‘chirib bo‘ldim: [ 15 ]
 
     
 
 

yunusovjamshid ®

Jins:
Yigit
Staj:
1 oy 8 kun
Xabarlar:
28

Qayerdan: Toshkent

Taqiq:

-Shef Adam Jons | Шеф Адам Джонс | Burnt
-- Chiqqan yili: 2015
Davlat:
Janr: drama, komediya
Davomiyligi: 01:40:47
Tarjima: Professional (dublyaj qilingan) [O'zbek tilida]--Rejissyor: Джон Уэллс | John Wells--Rollarda: Bradley Cooper, Sienna Miller, Omar Sy, Daniel Bruel, Uma Thurman, Emma Tompson, Rikkardo Scarmarcio, Shoh Kili, Genri Gudman, Metyu Rees--Tavsif: Uchrashuvning markazida - uning mashhurligi sababli Parijdagi o'z restoranini yo'qotib qo'yadigan taniqli oshpazning hikoyasi degradatsiyaga uchragan ikki yulduzga tushib ketdi. U bermaslikka qaror qilib, o'z jamoasini qayta o'rnatadi, London restoranini qayta quradi va uchta yulduzni olishga umid qiladi.-- Videoning sifati: WEB-DL 1080p
Video format:
Video: 920x800, 23.976 fp/s, 5 115 kb/s
Audio 1: AC-3, 48000Hz, 2 ch, 160 kbps |
Audio 2: AAC, 48000Hz, 2 ch, 140 kbps |

Media Info

General
Unique ID : 179785345897369420643641754473192503770 (0x874165EB5C73FF958C37B0A1F75439DA)
Complete name : D:\проче\кино\Шеф АдамДжонс (Сhef).2O15.D.WEB-DL 1080p.Rus.Uz.mkv
Format : Matroska
Format version : Version 4 / Version 2
File size : 3.79 GiB
Duration : 1 h 42 min
Overall bit rate : 5 285 kb/s
Encoded date : UTC 2018-11-05 08:37:50
Writing application : mkvmerge v8.8.0 ('Wind at my back') 64bit
Writing library : libebml v1.3.3 + libmatroska v1.4.4
Video
ID : 1
Format : AVC
Format/Info : Advanced Video Codec
Format profile : High@L4
Format settings, CABAC : Yes
Format settings, ReFrames : 4 frames
Codec ID : V_MPEG4/ISO/AVC
Duration : 1 h 40 min
Bit rate : 5 115 kb/s
Width : 1 920 pixels
Height : 800 pixels
Display aspect ratio : 2.40:1
Frame rate mode : Constant
Frame rate : 25.000 FPS
Color space : YUV
Chroma subsampling : 4:2:0
Bit depth : 8 bits
Scan type : Progressive
Bits/(Pixel*Frame) : 0.133
Stream size : 3.60 GiB (95%)
Language : English
Default : Yes
Forced : No
Audio #1
ID : 2
Format : AAC
Format/Info : Advanced Audio Codec
Format profile : LC
Codec ID : A_AAC
Duration : 1 h 42 min
Bit rate : 128 kb/s
Channel(s) : 2 channels
Channel positions : Front: L R
Sampling rate : 48.0 kHz
Frame rate : 46.875 FPS (1024 spf)
Compression mode : Lossy
Delay relative to video : 8 ms
Stream size : 94.0 MiB (2%)
Title : dublyaj
Language : Uzbek
Default : Yes
Forced : No
Audio #2
ID : 3
Format : AAC
Format/Info : Advanced Audio Codec
Format profile : LC
Codec ID : A_AAC
Duration : 1 h 40 min
Bit rate : 140 kb/s
Channel(s) : 2 channels
Channel positions : Front: L R
Sampling rate : 48.0 kHz
Frame rate : 46.875 FPS (1024 spf)
Compression mode : Lossy
Delay relative to video : 240 ms
Stream size : 101 MiB (3%)
Title : dub
Language : Russian
Default : No
Forced : No


So‘ngi marta tahrirlandi: yunusovjamshid (2018-12-01 11:10), Jami tahrirlangan 4 marta
Profil ShX

Vampire_1987

Jins:
Ko‘rsatilmagan
Staj:
1 yil 3 oy
Xabarlar:
115
Taqiq:

Kino Yaxshi Ishlangan Hammaga Korishni Tavsiya Qilaman )

Mavzu yaratish 05-Noy-2018 17:16 (50 daqiqa o‘tgach)

Iqitibos

Profil ShX

iJalol_Production

Jins:
Yigit
Staj:
8 oy 15 kun
Xabarlar:
70
Taqiq:

kino korishga arziydigan kino!
LEKIN OVOZI UMUMAN TUSHMAPTIDAAAA!!!!!!!!!!!!
OVOZNI BIRLASHTRGANDAN KEYIN DARROV RELIZ QILISHDAN OLDIN, 5 MINUTGA QIZG`ONMASDAN HAR-HIL JOYIDAN KINONI QOYIB TEKSHIRISH KERAKDA!!!
SHAXSAN MEN BU KINONI KORAMAN DEB VAQT TOPGANDIM!
LEKIN AFSUSKI OVOZI UMUMAN TOG`RI TUSHMAPTI!

Mavzu yaratish 07-Noy-2018 20:36 (2 kun 3 soat o‘tgach)

Iqitibos

Profil ShX

Dos

Jins:
Ko‘rsatilmagan
Staj:
1 oy 30 kun
Xabarlar:
8
Taqiq:

e ovoziga . . . .
jalka vaqt

Mavzu yaratish 24-Noy-2018 02:27 (16 kun o‘tgach)

Iqitibos

Profil ShX

yunusovjamshid ®

Jins:
Yigit
Staj:
1 oy 8 kun
Xabarlar:
28

Qayerdan: Toshkent

Taqiq:

Hatolar tug'rilandi, o'zbekcha ovozi joyiga tushirildi. TORRENT FAYLNI YANGIDAN KO'CHIRIB OLING.

Mavzu yaratish 01-Dek-2018 00:15 (6 kun o‘tgach)

Iqitibos

Profil ShX

iJalol_Production

Jins:
Yigit
Staj:
8 oy 15 kun
Xabarlar:
70
Taqiq:

6883Hatolar tug'rilandi, o'zbekcha ovozi joyiga tushirildi. TORRENT FAYLNI YANGIDAN KO'CHIRIB OLING.
RAhmat kattakon reliz ucun

Mavzu yaratish 01-Dek-2018 00:26 (10 daqiqa o‘tgach)

Iqitibos

Profil ShX
Xabarlarni ko‘rsatish:    

Hozirgi vaqt: 11-Dek 03:07

Vaqtlar farqi: UTC + 5



Siz mavzu yaratishingiz mumkin emas
Siz xabarlarga javob qaytarishingiz mumkin emas
Siz o‘z xabarlaringizni tahrirlashingiz mumkin emas
Siz o‘z xabarlaringizni o‘chirishingiz mumkin emas
Siz so‘rovlarda ovoz berishingiz mumkin emas
Siz xabalarga fayllarni biriktirishingiz mumkin emas
Siz fayllarni ko‘chirishingiz mumkin emas