˂
˃
Tarqatmalar statistikasi
Ko‘chirmoqdaman: [ 1 ]
Ko‘chirib bo‘ldim: [ 19 ]
 
     
 
 

N.U.R.I.K.B.E.K ®

Jins:
Yigit
Staj:
1 yil 1 oy
Xabarlar:
339

Qayerdan: Jizzax. Paxtakor

Taqiq:

--Sheriklar | Два Cтвола | 2 Guns-- --Chiqqan yili: 2013
Davlat: AQSH
Janr: Jangari, Triller, Drama, Jinoyat.
Davomiyligi: 01:49:15
Tarjima: Professional (dublyaj qilingan)
Tarjima #1: Professional (Kinoteatr) O'zbek Tili
Tarjima #2: Professional (Ko'p ovozli) Rus Tilida--Rejissyor: Baltasar Kormakur.--Rollarda: Denzel Vashington, Mark Uolberg, Pola Petton, Bill Pekston, Fred Uord, Djeyms Marsden, Edvard Djeyms Olmos, Robert Djon Byork, Greg Sprols, Patrik Fishler.--Tavsif: Bu ikki qaroqchining hikoyasidir, ular aslida nimani anglatmasin. Ulardan biri narkotiklarga qarshi kurash bo'limi agenti, ikkinchisi - dengiz kuchlarining razvedka xizmati. Ular bilmasdan, bir-birining ishlarini tekshirishadi, shuningdek mafiya pullarini o'g'irlashadi. Biroz vaqt o'tgach, qahramonlar Markaziy razvedka boshqarmasidan 50 million dollar o'g'irlashadi.--Videoning sifati: HDRip
Video format: MKV--Video: Xvid 720x304 23.976fps
Audio: MP3 48000Hz stereo 192kbps O'zbek Tili
Audio 2: Dolby AC3 48000Hz stereo 320kbps Rus Tili--

Media Info

General
Format : Matroska
Format version : Version 4 / Version 2
File size : 1.59 GiB
Duration : 1h 49mn
Overall bit rate : 2 082 Kbps
Video
ID : 1
Format : MPEG-4 Visual
Format profile : Advanced Simple@L5
Format settings, BVOP : 1
Format settings, QPel : No
Format settings, GMC : No warppoints
Format settings, Matrix : Custom
Codec ID : V_MS/VFW/FOURCC / XVID
Codec ID/Hint : XviD
Duration : 1h 49mn
Bit rate : 1 529 Kbps
Width : 720 pixels
Height : 304 pixels
Display aspect ratio : 2.35:1
Frame rate mode : Constant
Frame rate : 23.976 fps
Color space : YUV
Chroma subsampling : 4:2:0
Bit depth : 8 bits
Scan type : Progressive
Compression mode : Lossy
Bits/(Pixel*Frame) : 0.291
Stream size : 1.17 GiB (73%)
Writing library : XviD 73
Default : Yes
Forced : No
Audio #1
ID : 2
Format : MPEG Audio
Format version : Version 1
Format profile : Layer 3
Mode : Joint stereo
Mode extension : MS Stereo
Codec ID : A_MPEG/L3
Codec ID/Hint : MP3
Duration : 1h 49mn
Bit rate mode : Constant
Bit rate : 192 Kbps
Channel(s) : 2 channels
Sampling rate : 48.0 KHz
Compression mode : Lossy
Stream size : 150 MiB (9%)
Title : O'zbek Tili
Default : Yes
Forced : No
Audio #2
ID : 3
Format : AC-3
Format/Info : Audio Coding 3
Mode extension : CM (complete main)
Format settings, Endianness : Big
Codec ID : A_AC3
Duration : 1h 49mn
Bit rate mode : Constant
Bit rate : 320 Kbps
Channel(s) : 2 channels
Channel positions : Front: L R
Sampling rate : 48.0 KHz
Compression mode : Lossy
Stream size : 250 MiB (15%)
Title : Rus Tili
Default : No
Forced : No
LAVHALAR


So‘ngi marta tahrirlandi: N.U.R.I.K.B.E.K (2018-10-22 18:52), Jami tahrirlangan 1 marta
Profil ShX

MRLG

Jins:
Yigit
Staj:
1 yil 3 oy
Xabarlar:
526
Taqiq:

N.U.R.I.K.B.E.K,
1. Muqova zo'r, lekin boshqa trekerni nomi yozilgan. Bu esa treker qoidalariga zid.
2. Film sifati aniq WEB-DLRipmi? Balki HDRip yoki BDRipdir? Chunki bu film internetda faqat HDRip yoki BDRipda tarqalgan. Filmni ko'chirib olgan joyizni yaxshilab ko'ring. Qanaqa sifat yozilgan.

Mavzu yaratish 22-Okt-2018 18:31 (1 soat 24 daqiqa o‘tgach)

Iqitibos

Profil ShX

N.U.R.I.K.B.E.K ®

Jins:
Yigit
Staj:
1 yil 1 oy
Xabarlar:
339

Qayerdan: Jizzax. Paxtakor

Taqiq:

Televidinyadagilar bekorchilikdan nima qilarini bilmagan vaqtda qo'lariga shu kino tushib qogan shekili yoki 10-minutli reklama uchun joy ajratkan ab , odiy suhbatlarni ham kesavergan

Mavzu yaratish 22-Okt-2018 18:59 (27 daqiqa o‘tgach)

Iqitibos

Profil ShX

N.U.R.I.K.B.E.K ®

Jins:
Yigit
Staj:
1 yil 1 oy
Xabarlar:
339

Qayerdan: Jizzax. Paxtakor

Taqiq:

6494Televidinyadagilar bekorchilikdan nima qilarini bilmagan vaqtda qo'lariga shu kino tushib qogan shekili yoki 10-minutli reklama uchun joy ajratkan ab , odiy suhbatlarni ham kesavergan
uzr xafa bumislar borini kesib to'g'irladim orasida soniyali so'zlar ruschada chiqib turadi bundan ajablanmanglar HAMMA AYB TELEVIDENYADA

Mavzu yaratish 22-Okt-2018 19:07 (8 daqiqa o‘tgach)

Iqitibos

Profil ShX

Spicger

Jins:
Yigit
Staj:
2 oy 11 kun
Xabarlar:
38

Qayerdan: Chinoz

Taqiq:

yaxshi kino lekin eskida man yangisi dip o'ylagandim Nurikbek oka ishlarizga omad !!!

Mavzu yaratish 22-Okt-2018 19:21 (13 daqiqa o‘tgach)

Iqitibos

Profil ShX

N.U.R.I.K.B.E.K ®

Jins:
Yigit
Staj:
1 yil 1 oy
Xabarlar:
339

Qayerdan: Jizzax. Paxtakor

Taqiq:

Spicger, buni davomi yani 2chi chasi chiqdimi,,?

Mavzu yaratish 22-Okt-2018 19:27 (6 daqiqa o‘tgach)

Iqitibos

Profil ShX

Spicger

Jins:
Yigit
Staj:
2 oy 11 kun
Xabarlar:
38

Qayerdan: Chinoz

Taqiq:

N.U.R.I.K.B.E.K, bilmiman manam ikkinchisi chiqdi dip o'ylagandimda :)

Mavzu yaratish 22-Okt-2018 21:06 (1 soat 38 daqiqa o‘tgach)

Iqitibos

Profil ShX
Xabarlarni ko‘rsatish:    

Hozirgi vaqt: 11-Dek 03:52

Vaqtlar farqi: UTC + 5



Siz mavzu yaratishingiz mumkin emas
Siz xabarlarga javob qaytarishingiz mumkin emas
Siz o‘z xabarlaringizni tahrirlashingiz mumkin emas
Siz o‘z xabarlaringizni o‘chirishingiz mumkin emas
Siz so‘rovlarda ovoz berishingiz mumkin emas
Siz xabalarga fayllarni biriktirishingiz mumkin emas
Siz fayllarni ko‘chirishingiz mumkin emas