˂
˃
Tarqatmalar statistikasi
Yoʻq
 
     
 
 

Gr@nd ®

Jins:
Yigit
Staj:
1 yil 1 oy
Xabarlar:
158

Qayerdan: Jizzax Forish

Taqiq:

-Sheriklar | Напарник -Davlat: Rossiya
Janr: Kulguli, sarguzasht, jangari
Chiqqan yili: 2017
Davomiyligi: 01:32:35-Tarjima: Professional (dublyaj qilingan)O'zbek tilida-Rejissiyor: Alеksandr Andryuhеnko-Rollarda: Sеrgеy Garmash (Xromov), Andrеy Nazimov (Olеg), Liza Arzamasova (Katya), Ksеniya Lavrova-Glinka (Lyuda), Yan Sapnik (Drakon), Filipp Yaitskiy (glavar xuliganov), Andrеy Zolotarеv (rеportеr), Saxat Dursunov (avtoritеt), Еvgеniy Koryakovskiy (avtoritеt), Yunchеn Juan (pеrеvodchik), Yan Ge (gadalka), Yana Koshkina (Anjеla)-Описание: Неудачная спецоперация заканчивается для майора Хромова переселением в тело маленького ребенка. И всему виной проклятие гадалки! Но даже пересев из полицейской машины в детскую коляску, он умудряется доставить немало хлопот преступному синдикату на Дальнем Востоке. При этом мама ребенка не подозревает, что ее сын способен вести жесткие допросы, а папа вынужден стать невольным «напарником» Хромова. Ведь для того, чтобы вернуть все на свои места, им предстоит закончить спецоперацию, а значит, отец с младенцем начинают охоту на самого опасного главаря местной мафии.-Videoning sifati: WEB-DLRip
Формат видео: MKV-Video: Xvid 720x304 24fps 1 677 Kbps
Audio: Dolby AC3 48000Hz 6ch Rus
Audio: MP3 48000Hz 2ch 128kbps Uzb
-

MediaInfo

General
Unique ID : 174308420639746451739233595205274187861 (0x832294A7E57048348529AF84AB263855)
Format : Matroska
Format version : Version 4 / Version 2
File size : 1.44 GiB
Duration : 1h 32mn
Overall bit rate : 2 234 Kbps
Movie name : Xusan_Gr@nd
Encoded date : UTC 2017-11-04 14:48:14
Writing application : mkvmerge v6.8.0 ('Theme for Great Cities') 64bit built on Mar 2 2014 21:34:26
Writing library : libebml v1.3.0 + libmatroska v1.4.1
Video
ID : 1
Format : MPEG-4 Visual
Format profile : Advanced Simple@L5
Format settings, BVOP : Yes
Format settings, QPel : No
Format settings, GMC : No warppoints
Format settings, Matrix : Default (MPEG)
Codec ID : XVID
Codec ID/Hint : XviD
Duration : 1h 32mn
Bit rate : 1 677 Kbps
Width : 720 pixels
Height : 304 pixels
Display aspect ratio : 2.35:1
Frame rate : 24.000 fps
Color space : YUV
Chroma subsampling : 4:2:0
Bit depth : 8 bits
Scan type : Progressive
Compression mode : Lossy
Bits/(Pixel*Frame) : 0.319
Stream size : 1.08 GiB (75%)
Writing library : XviD 1.2.1 (UTC 2008-12-04)
Default : Yes
Forced : No
Audio #1
ID : 2
Format : AC-3
Format/Info : Audio Coding 3
Mode extension : CM (complete main)
Format settings, Endianness : Big
Codec ID : A_AC3
Duration : 1h 32mn
Bit rate mode : Constant
Bit rate : 384 Kbps
Channel(s) : 6 channels
Channel positions : Front: L C R, Side: L R, LFE
Sampling rate : 48.0 KHz
Bit depth : 16 bits
Compression mode : Lossy
Stream size : 254 MiB (17%)
Default : Yes
Forced : No
Audio #2
ID : 3
Format : MPEG Audio
Format version : Version 1
Format profile : Layer 3
Mode : Joint stereo
Mode extension : MS Stereo
Codec ID : A_MPEG/L3
Codec ID/Hint : MP3
Duration : 1h 32mn
Bit rate mode : Constant
Bit rate : 128 Kbps
Channel(s) : 2 channels
Sampling rate : 44.1 KHz
Compression mode : Lossy
Stream size : 84.8 MiB (6%)
Title : Xusan_Gr@nd
Language : Uzbek
Default : No
Forced : No
Profil ShX
Xabarlarni ko‘rsatish:    

Hozirgi vaqt: 15-Noy 12:03

Vaqtlar farqi: UTC + 5



Siz mavzu yaratishingiz mumkin emas
Siz xabarlarga javob qaytarishingiz mumkin emas
Siz o‘z xabarlaringizni tahrirlashingiz mumkin emas
Siz o‘z xabarlaringizni o‘chirishingiz mumkin emas
Siz so‘rovlarda ovoz berishingiz mumkin emas
Siz xabalarga fayllarni biriktirishingiz mumkin emas
Siz fayllarni ko‘chirishingiz mumkin emas