˂
˃
Tarqatmalar statistikasi
Ko‘chiraman: [ 1 ]
Ko‘chirmoqdaman: [ 6 ]
Ko‘chirib bo‘ldim: [ 22 ]
 
     
 
 

Prince ®

Jins:
Yigit
Staj:
5 oy
Xabarlar:
18

Qayerdan: Jizzakh CITY

Taqiq:

Sherlok / Шерлок / Sherlock
Mavsumlar: 1-3 Qism: 1-9 Chiqqan yili: 2010-2014
Davlat: Buyuk Britaniya
Janr: detektiv, drama, triller, jinoiy ish
Davomiyligi: ~1:30:00 min
Tarjima 1: Professional dublyaj
Tarjima 2: To'liq dublyaj
Subtitrlar: Rus | Eng - to'liq Rejissyor: : Mark Getis, Stiven Moffat Rollarda: Benedikt Kumberbatch, Martin Freeman Stubbs, Rupert Graves, Lou Briley, Mark Geitiss, Andrew Scott, Jonathan Aris, Videt Robinson, Amanda Abbington. Tavsif: Sherlock Holmes (Sherlock) deb nomlanuvchi Sherlock, BBC Wels uchun suratga olingan Hartswood Films'ning ingliz televizionlari seriyasidir. Bu qurol Sir Arthur Conan Doylning Dedektiv Sherlok Xolms haqidagi asarlariga asoslangan, ammo bugungi kunda bu voqea sodir bo'ladi. 2009 yilda uchuvchi epizod ko'rsatilmagan va iyul va avgust oylarida, birinchi mavsumning uchta to'qson daqiqali epizodlari BBC One va BBC HDda ko'rsatildi. Ikkinchi mavsumda 2012 yilning yanvarida, uchinchisi esa 2014 yilning yanvarida BBC1 tomonidan mini-seriyali bo'lib o'tdi. 2014-yilning 8-yanvarida Stefen Moffat ketma-ket to'rtinchi va beshinchi fasllar uchun kengaytirilganini tasdiqladi va so'nggi ikki yilga qaraganda yangi epizodlarni tezroq tayyorlash mumkinligiga umid bildirdi. Rossiyada televidenie seriyasining barcha uch mavsumi birinchi kanal orqali efirga uzatildi, Fox Crimeda birinchi ikki mavsum ko'rsatildi va birinchi mavsum ham "Kanal beshinchi" da ko'rsatildi... Videoning sifati: BDRip-AVC 720i
Video format: MKV
Video: 728x410 | ~1000 kbps | 25 fps
Audio: MP3 | 41 kHz | 2.0 | 128 kbps
Audio 2: AAC | 48 kHz | 2.0 | 64 kbps

Media Info

General
Unique ID : 161920336717961407095415940067778335281 (0x79D0B8F65A33D0C0E0F9B49CEB439231)
Complete name : D:\Install\Prince_OF_Jizzakh\Sherlock. All Seasons\Sherlok Holmos.M01Q01.Uzb.Rus.BDRip-AVC.mkv
Format : Matroska
Format version : Version 4 / Version 2
File size : 826 MiB
Duration : 1 h 28 min
Overall bit rate : 1 311 kb/s
Movie name : Шерлок / Sherlock (2010)
Encoded date : UTC 2018-10-31 04:08:29
Writing application : mkvmerge v26.0.0 ('In The Game') 64-bit
Writing library : libebml v1.3.6 + libmatroska v1.4.9
Cover : Yes
Attachments : cover.png
Video
ID : 1
Format : AVC
Format/Info : Advanced Video Codec
Format profile : High@L4.1
Format settings, CABAC : Yes
Format settings, ReFrames : 11 frames
Codec ID : V_MPEG4/ISO/AVC
Duration : 1 h 28 min
Bit rate : 1 116 kb/s
Width : 728 pixels
Height : 410 pixels
Display aspect ratio : 16:9
Frame rate mode : Constant
Frame rate : 25.000 FPS
Color space : YUV
Chroma subsampling : 4:2:0
Bit depth : 8 bits
Scan type : Progressive
Bits/(Pixel*Frame) : 0.150
Stream size : 703 MiB (85%)
Writing library : x264 core 130 r2273 b3065e6
Encoding settings : cabac=1 / ref=11 / deblock=1:-1:-1 / analyse=0x3:0x113 / me=umh / subme=11 / psy=1 / psy_rd=1.00:0.05 / mixed_ref=1 / me_range=48 / chroma_me=1 / trellis=2 / 8x8dct=1 / cqm=0 / deadzone=21,11 / fast_pskip=0 / chroma_qp_offset=-3 / threads=6 / lookahead_threads=1 / sliced_threads=0 / nr=0 / decimate=1 / interlaced=0 / bluray_compat=0 / constrained_intra=0 / bframes=10 / b_pyramid=2 / b_adapt=2 / b_bias=0 / direct=3 / weightb=1 / open_gop=0 / weightp=2 / keyint=250 / keyint_min=25 / scenecut=40 / intra_refresh=0 / rc_lookahead=60 / rc=2pass / mbtree=1 / bitrate=1116 / ratetol=1.0 / qcomp=0.60 / qpmin=0 / qpmax=69 / qpstep=4 / cplxblur=20.0 / qblur=0.5 / vbv_maxrate=14000 / vbv_bufsize=14000 / nal_hrd=none / ip_ratio=1.40 / aq=2:1.00
Language : English
Default : Yes
Forced : No
Audio #1
ID : 2
Format : MPEG Audio
Format version : Version 1
Format profile : Layer 3
Mode : Joint stereo
Mode extension : MS Stereo
Codec ID : A_MPEG/L3
Codec ID/Hint : MP3
Duration : 1 h 28 min
Bit rate mode : Constant
Bit rate : 128 kb/s
Channel(s) : 2 channels
Sampling rate : 44.1 kHz
Frame rate : 38.281 FPS (1152 spf)
Compression mode : Lossy
Stream size : 80.6 MiB (10%)
Title : Prince306
Writing library : LAME3.99.5
Language : Uzbek
Default : Yes
Forced : Yes
Audio #2
ID : 3
Format : AAC
Format/Info : Advanced Audio Codec
Format profile : HE-AAC / LC
Codec ID : A_AAC
Duration : 1 h 28 min
Bit rate : 64.0 kb/s
Channel(s) : 2 channels
Channel positions : Front: L R
Sampling rate : 48.0 kHz / 24.0 kHz
Frame rate : 23.438 FPS (1024 spf)
Compression mode : Lossy
Delay relative to video : 31 ms
Stream size : 40.3 MiB (5%)
Language : Russian
Default : No
Forced : No
Text #1
ID : 4
Format : UTF-8
Codec ID : S_TEXT/UTF8
Codec ID/Info : UTF-8 Plain Text
Duration : 59 min 54 s
Bit rate : 2 b/s
Count of elements : 42
Stream size : 1.30 KiB (0%)
Title : Forced
Language : Russian
Default : Yes
Forced : No
Text #2
ID : 5
Format : UTF-8
Codec ID : S_TEXT/UTF8
Codec ID/Info : UTF-8 Plain Text
Duration : 1 h 26 min
Bit rate : 135 b/s
Count of elements : 1282
Stream size : 85.6 KiB (0%)
Title : Full
Language : Russian
Default : No
Forced : No
Text #3
ID : 6
Format : UTF-8
Codec ID : S_TEXT/UTF8
Codec ID/Info : UTF-8 Plain Text
Duration : 1 h 25 min
Bit rate : 80 b/s
Count of elements : 1378
Stream size : 50.3 KiB (0%)
Language : English
Default : No
Forced : No
Menu
00:00:00.000 : en:00:00:00.000
00:12:01.440 : en:00:12:01.440
00:23:00.800 : en:00:23:00.800
00:34:36.680 : en:00:34:36.680
00:42:17.480 : en:00:42:17.480
00:55:16.480 : en:00:55:16.480
01:02:57.320 : en:01:02:57.320
01:21:39.120 : en:01:21:39.120


So‘ngi marta tahrirlandi: Prince (2018-11-03 12:30), Jami tahrirlangan 3 marta
Profil ShX

Unofficial

Jins:
Yigit
Staj:
8 oy 21 kun
Xabarlar:
446

Qayerdan: Nukus

Taqiq:

Prince, oformlernie bo'yicha ozgina ishlashingiz kerak. Poster va tepa qismdagi rasmni sal kichiraytiring. Juda katta bo'lib ketgan. Hunug ko'rinayapdi va shriftlarni ham 18 yoki 16 likga ko'chiring. Keyingisi esa Shapkadagi Mavsumalar yozuvini to'grilang!

Mavzu yaratish 03-Noy-2018 10:15 (32 daqiqa o‘tgach)

Iqitibos

Profil ShX

iJalol_Production

Jins:
Yigit
Staj:
8 oy 22 kun
Xabarlar:
70
Taqiq:

posterni koproq kickina qiling!!!!

Mavzu yaratish 03-Noy-2018 10:45 (29 daqiqa o‘tgach)

Iqitibos

Profil ShX

Tulkin

Jins:
Yigit
Staj:
1 yil
Xabarlar:
46

Qayerdan: Kumkurgan

Taqiq:

1 2 mavsumlari yumi

Mavzu yaratish 03-Noy-2018 11:37 (52 daqiqa o‘tgach)

Iqitibos

Profil ShX

Unofficial

Jins:
Yigit
Staj:
8 oy 21 kun
Xabarlar:
446

Qayerdan: Nukus

Taqiq:

66761 2 mavsumlari yumi
all seasons deyilganku. Demak 1-2-3-mavsumlar degani

Mavzu yaratish 03-Noy-2018 11:48 (10 daqiqa o‘tgach)

Iqitibos

Profil ShX

MRLG

Jins:
Yigit
Staj:
1 yil 4 oy
Xabarlar:
526
Taqiq:

Prince, Serialni Yoshlardan shu yaqin orada bergan vaqtda ko'chirib keyin montaj qildingizmi yoki oldindan bu reliz sizda bor edimi? Ovoz yo'lakchasi sifatli joylanganmi? Javob uchun oldindan rahmat.

Mavzu yaratish 03-Noy-2018 16:19 (4 soat o‘tgach)

Iqitibos

Profil ShX

Tulkin

Jins:
Yigit
Staj:
1 yil
Xabarlar:
46

Qayerdan: Kumkurgan

Taqiq:

bir oy kutamiz shekilli

Mavzu yaratish 04-Noy-2018 14:41 (22 soat o‘tgach)

Iqitibos

Profil ShX

Spicger

Jins:
Yigit
Staj:
2 oy 18 kun
Xabarlar:
39

Qayerdan: Chinoz

Taqiq:

Prince, reliz qigandan keyin tarqatmidimi mani relizim bo'ganida kechayu kunduz sidda bo'lardim xech bo'maganda 1 ta odam ko'chirvosin bo'ldi o'sha odam tarqatadi keyin qoganlaga

Mavzu yaratish 04-Noy-2018 19:43 (5 soat o‘tgach)

Iqitibos

Profil ShX

BoboMUROD

Jins:
Ko‘rsatilmagan
Staj:
1 yil 2 oy
Xabarlar:
14
Taqiq:

1.2% da qotib qoldikku

Mavzu yaratish 05-Noy-2018 07:05 (11 soat o‘tgach)

Iqitibos

Profil ShX
Xabarlarni ko‘rsatish:    

Hozirgi vaqt: 17-Dek 23:42

Vaqtlar farqi: UTC + 5



Siz mavzu yaratishingiz mumkin emas
Siz xabarlarga javob qaytarishingiz mumkin emas
Siz o‘z xabarlaringizni tahrirlashingiz mumkin emas
Siz o‘z xabarlaringizni o‘chirishingiz mumkin emas
Siz so‘rovlarda ovoz berishingiz mumkin emas
Siz xabalarga fayllarni biriktirishingiz mumkin emas
Siz fayllarni ko‘chirishingiz mumkin emas