˂
˃
 

Tulkin ®

Jins:
Yigit
Staj:
1 yil
Xabarlar:
46

Qayerdan: Kumkurgan

Taqiq:

Siber | Сибирь (Профессионал) | Siberia
Chiqqan yili: 2018
Davlat: AQSH
Janr: Triller, Melodramma, Kriminal
Davomiyligi: 01:44:42--Tarjima: Professional (SevimliTV) O'zbek tilida
Tarjima 2: Professional (Litsenziya) Rus tili--Rejissyor: Mettyu M. Ross \ Matthew Ross-Rollarda: Kianu Rivz, Molli Ringould, Anna Ularu, Alex Paunovich, Veronica Ferres, Pavel Lichnikoff, Eshli ST. Jorj, Yudjin Lipinski, Dmitriy Chepovetskiy, James Alexander-Tavsif: Amerikalik treyderning sherigi Pyoter bilan uchrashish va ko'k olmoslarni sotish uchun Rossiyaga safar qilayotgan qimmatbaho toshlardagi hikoyasi. Uning sherigi Pyoter yo'qolib ketadi va qahramon uni qidirishda Sibirning tubiga kiradi. U oldinda nima kutayotganini bilmaydi.-Videoning sifati: BDRip-AVC--Video format: MKV
Video: AVC, 976x408 , 23,976 fps, 1 546 kbps
Audio: AAC 44100Hz 2ch 192kbps Uzbek tili (Sevimli TV)
Audio 2: Dolby AC3 48000Hz 2ch 192kbps Rus Tili
Audio 3: Dolby AC3 48000Hz 6ch 256kbps Rus Tili
Subtitrlar: Ruscha (to'liq), ingliz (og'zaki nutq tili, SD)--

Media Info

General
Unique ID : 223229798102963152073905177014328224475 (0xA7F07EC9A931C15ECDB6B5A85B65EADB)
Complete name : E:\torrent\Siberia.2018.BDRip(AVC).ALLTOR.ME (1).mkv
Format : Matroska
Format version : Version 4 / Version 2
File size : 1.60 GiB
Duration : 1h 44mn
Overall bit rate : 2 189 Kbps
Movie name : Siberia.2018 #TorpedoUK#
Encoded date : UTC 2018-10-12 06:19:56
Writing application : mkvmerge v19.0.0 ('Brave Captain') 64-bit
Writing library : libebml v1.3.5 + libmatroska v1.4.8
DURATION : 01:44:42.275000000
NUMBER_OF_FRAMES : 270555
NUMBER_OF_BYTES : 151496324
_STATISTICS_WRITING_APP : mkvmerge v19.0.0 ('Brave Captain') 64-bit
_STATISTICS_WRITING_DATE_UTC : 2018-10-12 06:19:56
_STATISTICS_TAGS : BPS DURATION NUMBER_OF_FRAMES NUMBER_OF_BYTES
Video
ID : 1
Format : AVC
Format/Info : Advanced Video Codec
Format profile : High@L4.1
Format settings, CABAC : Yes
Format settings, ReFrames : 10 frames
Codec ID : V_MPEG4/ISO/AVC
Duration : 1h 44mn
Nominal bit rate : 1 546 Kbps
Width : 976 pixels
Height : 408 pixels
Display aspect ratio : 2.40:1
Frame rate mode : Constant
Frame rate : 23.976 fps
Color space : YUV
Chroma subsampling : 4:2:0
Bit depth : 8 bits
Scan type : Progressive
Bits/(Pixel*Frame) : 0.162
Writing library : x264 core 146 r2538 121396c
Encoding settings : cabac=1 / ref=10 / deblock=1:-3:-3 / analyse=0x3:0x113 / me=umh / subme=11 / psy=1 / psy_rd=1.00:0.03 / mixed_ref=1 / me_range=48 / chroma_me=1 / trellis=2 / 8x8dct=1 / cqm=0 / deadzone=21,11 / fast_pskip=1 / chroma_qp_offset=-3 / threads=6 / lookahead_threads=1 / sliced_threads=0 / nr=0 / decimate=1 / interlaced=0 / bluray_compat=0 / constrained_intra=0 / bframes=10 / b_pyramid=2 / b_adapt=2 / b_bias=0 / direct=3 / weightb=1 / open_gop=0 / weightp=2 / keyint=240 / keyint_min=23 / scenecut=40 / intra_refresh=0 / rc_lookahead=40 / rc=2pass / mbtree=0 / bitrate=1546 / ratetol=1.0 / qcomp=0.60 / qpmin=0 / qpmax=69 / qpstep=4 / cplxblur=20.0 / qblur=0.5 / vbv_maxrate=50000 / vbv_bufsize=62500 / nal_hrd=none / filler=0 / ip_ratio=1.40 / pb_ratio=1.30 / aq=1:1.00
Default : Yes
Forced : No
Audio #1
ID : 2
Format : AAC
Format/Info : Advanced Audio Codec
Format profile : LC
Codec ID : A_AAC
Duration : 1h 44mn
Channel(s) : 2 channels
Channel positions : Front: L R
Sampling rate : 44.1 KHz
Compression mode : Lossy
Title : Sevimli TV
Language : Uzbek
Default : No
Forced : No
Audio #2
ID : 3
Format : AC-3
Format/Info : Audio Coding 3
Mode extension : CM (complete main)
Format settings, Endianness : Big
Codec ID : A_AC3
Duration : 1h 44mn
Bit rate mode : Constant
Bit rate : 192 Kbps
Channel(s) : 2 channels
Channel positions : Front: L R
Sampling rate : 48.0 KHz
Bit depth : 16 bits
Compression mode : Lossy
Stream size : 144 MiB (9%)
Title : MVO [HDRezka Studio]
Language : Russian
Default : Yes
Forced : No
Audio #3
ID : 4
Format : AC-3
Format/Info : Audio Coding 3
Mode extension : CM (complete main)
Format settings, Endianness : Big
Codec ID : A_AC3
Duration : 1h 44mn
Bit rate mode : Constant
Bit rate : 256 Kbps
Channel(s) : 6 channels
Channel positions : Front: L C R, Side: L R, LFE
Sampling rate : 48.0 KHz
Bit depth : 16 bits
Compression mode : Lossy
Stream size : 192 MiB (12%)
Title : VO [BadBajo]
Language : Russian
Default : No
Forced : No
Text #1
ID : 5
Format : UTF-8
Codec ID : S_TEXT/UTF8
Codec ID/Info : UTF-8 Plain Text
Title : Full
Language : Russian
Default : No
Forced : No
Text #2
ID : 6
Format : UTF-8
Codec ID : S_TEXT/UTF8
Codec ID/Info : UTF-8 Plain Text
Title : SDH
Language : English
Default : No
Forced : No
Menu
00:00:00.000 : en:Chapter 1
00:09:22.937 : en:Chapter 2
00:17:40.350 : en:Chapter 3
00:22:02.237 : en:Chapter 4
00:29:52.499 : en:Chapter 5
00:38:31.225 : en:Chapter 6
00:44:18.739 : en:Chapter 7
00:51:32.380 : en:Chapter 8
00:57:34.409 : en:Chapter 9
01:04:05.716 : en:Chapter 10
01:13:01.543 : en:Chapter 11
01:18:49.558 : en:Chapter 12
01:23:58.616 : en:Chapter 13
01:28:55.288 : en:Chapter 14
01:32:42.306 : en:Chapter 15
01:36:17.313 : en:Chapter 16
-L A V H A L A R-
Profil ShX

Tulkin ®

Jins:
Yigit
Staj:
1 yil
Xabarlar:
46

Qayerdan: Kumkurgan

Taqiq:

27812/10.8.190.34

Mavzu yaratish 12-Okt-2018 12:36 (30 daqiqa o‘tgach)

Iqitibos

Profil ShX

AxeL

Jins:
Yigit
Staj:
9 oy
Xabarlar:
615

Qayerdan: Gronland, Norway

Taqiq:

HD kinomanchilar yana bittaga ko'payishdi, rahmat, charchamang, ijoddan toxtamang, omad!

Mavzu yaratish 14-Okt-2018 12:06 (1 kun 23 soat o‘tgach)

Iqitibos

Profil ShX
Xabarlarni ko‘rsatish:    

Hozirgi vaqt: 18-Dek 00:36

Vaqtlar farqi: UTC + 5



Siz mavzu yaratishingiz mumkin emas
Siz xabarlarga javob qaytarishingiz mumkin emas
Siz o‘z xabarlaringizni tahrirlashingiz mumkin emas
Siz o‘z xabarlaringizni o‘chirishingiz mumkin emas
Siz so‘rovlarda ovoz berishingiz mumkin emas
Siz xabalarga fayllarni biriktirishingiz mumkin emas
Siz fayllarni ko‘chirishingiz mumkin emas