˂
˃
Tarqatmalar statistikasi
Ko‘chirmoqdaman: [ 9 ]
Ko‘chirib bo‘ldim: [ 19 ]
 
     
 
 

AxeL ®

Jins:
Yigit
Staj:
9 oy
Xabarlar:
615

Qayerdan: Gronland, Norway

Taqiq:

-Sinbad: Yetti dengiz afsonasi / Синдбад: Легенда семи морей / Sinbad: Legend of the Seven Seas-
    Chiqqan yili: 2003
    Davlat: AQSh
    Janr: multfilm, fantaziya, sarguzasht, oilaviy
    Davomiyligi: 01:25:18
    Tarjima: Professional (Ko'p ovozli kadr ortidan) O'zbek tilida-Rejissyor: Patrik Gilmor, Tim Jonson-Rollarni ovozlashtirganlar: Bred Pitt, Ketrin Zeta Jons, Mishel Pfaffer, Jozef Fayns, Dennis Xeynsbert, Timoti Uest, Adriano Jannini, Riman Xyui, Chung Chan, Jim Kammings va boshqalar...-Tavsif: Sinbad dunyo kitobini qidirish uchun dengizga safariga otlanadi. Dengizda uni olam malikasi tomonidan yuborilayotgan mahluqlarga duch kelishadi, negaki dunyo kitobi ungayam kerak edi. Shu yo'lda Sinbadni ancha mashaqqatli sinovlar kutadi...-Videoning sifati: WEB-DL 720p
    Video format: MKV
    Video: MPEG4 Video (H264) 1278x720 25fps 4 412 Kbps
    Audio #1: Dolby AC3 48000Hz 6ch 384kbps Rus tilida
    Audio #2: AAC 48000Hz stereo 2ch 128 kbps O'zbek tilida

Media Info

General
Unique ID                      : 72772000400152440723114126530441430958 (0x36BF60A1C43B455F72C971DC04D4C7AE)
Complete name                  : D:\Films\Multfilms\HD Video\Sinbad.2003.WEB.DL.720p.Rus.Uzb.mkv
Format                         : Matroska
Format version                 : Version 4 / Version 2
File size                      : 2.82 GiB
Duration                       : 1h 21mn
Overall bit rate               : 4 927 Kbps
Movie name                     : Синдбад: Легенда Семи Морей / Sinbad: Legend Of The Seven Seas (2003) WEB-DL 720p (CtrlHD)
Encoded date                   : UTC 2018-10-28 09:12:15
Writing application            : mkvmerge v22.0.0 ('At The End Of The World') 64-bit
Writing library                : libebml v1.3.5 + libmatroska v1.4.8
Attachements                   : Cover.jpg
Video
ID                             : 1
Format                         : AVC
Format/Info                    : Advanced Video Codec
Format profile                 : High@L3.1
Format settings, CABAC         : No
Format settings, ReFrames      : 2 frames
Codec ID                       : V_MPEG4/ISO/AVC
Duration                       : 1h 21mn
Bit rate                       : 4 412 Kbps
Width                          : 1 278 pixels
Height                         : 720 pixels
Display aspect ratio           : 16:9
Frame rate mode                : Constant
Frame rate                     : 25.000 fps
Color space                    : YUV
Chroma subsampling             : 4:2:0
Bit depth                      : 8 bits
Scan type                      : Progressive
Bits/(Pixel*Frame)             : 0.192
Stream size                    : 2.52 GiB (90%)
Title                          : Синдбад: Легенда Семи Морей / Sinbad: Legend Of The Seven Seas (2003) WEB-DL 720p (CtrlHD)
Language                       : English
Default                        : Yes
Forced                         : No
Color range                    : Limited
Color primaries                : BT.709
Transfer characteristics       : BT.709
Matrix coefficients            : BT.709
Audio #1
ID                             : 2
Format                         : AC-3
Format/Info                    : Audio Coding 3
Mode extension                 : CM (complete main)
Format settings, Endianness    : Big
Codec ID                       : A_AC3
Duration                       : 1h 21mn
Bit rate mode                  : Constant
Bit rate                       : 384 Kbps
Channel(s)                     : 6 channels
Channel positions              : Front: L C R, Side: L R, LFE
Sampling rate                  : 48.0 KHz
Frame rate                     : 31.250 fps (1536 spf)
Compression mode               : Lossy
Stream size                    : 225 MiB (8%)
Title                          : Rus tilida (DUB) AxeL
Language                       : Russian
Default                        : Yes
Forced                         : No
Audio #2
ID                             : 3
Format                         : AAC
Format/Info                    : Advanced Audio Codec
Format profile                 : LC
Codec ID                       : A_AAC
Duration                       : 1h 21mn
Bit rate                       : 128 Kbps
Channel(s)                     : 2 channels
Channel positions              : Front: L R
Sampling rate                  : 48.0 KHz
Frame rate                     : 46.875 fps (1024 spf)
Compression mode               : Lossy
Stream size                    : 74.7 MiB (3%)
Title                          : O'zbek tilida (DUB) AxeL
Language                       : Uzbek
Default                        : No
Forced                         : No
-
Profil ShX

KILLER_89-10

Jins:
Yigit
Staj:
8 oy 22 kun
Xabarlar:
25
Taqiq:

AxeL, multfilmning o'zbekcha ovozining yarmi yo'qku

Mavzu yaratish 30-Okt-2018 11:56 (1 kun 20 soat o‘tgach)

Iqitibos

Profil ShX

AxeL ®

Jins:
Yigit
Staj:
9 oy
Xabarlar:
615

Qayerdan: Gronland, Norway

Taqiq:

KILLER_89-10, Menda hammasi joyida. Siz o'zingizda bo'lishi mumkin.

Mavzu yaratish 07-Noy-2018 21:53 (8 kun o‘tgach)

Iqitibos

Profil ShX
Xabarlarni ko‘rsatish:    

Hozirgi vaqt: 18-Dek 00:38

Vaqtlar farqi: UTC + 5



Siz mavzu yaratishingiz mumkin emas
Siz xabarlarga javob qaytarishingiz mumkin emas
Siz o‘z xabarlaringizni tahrirlashingiz mumkin emas
Siz o‘z xabarlaringizni o‘chirishingiz mumkin emas
Siz so‘rovlarda ovoz berishingiz mumkin emas
Siz xabalarga fayllarni biriktirishingiz mumkin emas
Siz fayllarni ko‘chirishingiz mumkin emas