˂
˃
Tarqatmalar statistikasi
Ko‘chirmoqdaman: [ 9 ]
Ko‘chirib bo‘ldim: [ 7 ]
 
     
 
 

maxa ®

Jins:
Yigit
Staj:
8 oy 23 kun
Xabarlar:
98
Taqiq:

SINOVLI DUNYO
Chiqqan yili: 2018
Janr: Drama
Davomiyligi: ~00.20.00~
Rejissor:Ahad Qayum
Stsenariy:Nozima Ziyo
Bastakor:Isroil Saidumarov
Manba: Rizanova
Rollarda:Ahad Qayum, Saida Saidbekova, Sevara Solieva, Luiza Rasulova, Tal'at Yuldashev, Barno Yarasheva, Barno Kodirova, Rajab Adashev, Aleksandr Bakjonov, Mehri Bekjonovalar, Madina Muhtorova, Zokir Ochildiyev, Tolib Mo'minov, Isroil Saidumarov, Gulxumor Abdullaeva
Format: AVC
Video: MPEG4 Video (H264) 1920x1080 25fps 2495kbps
Audio:AAC 44100Hz stereo 125kbps
Tavsif: Sizlarga 2018 yilda Ahad Qayum tomonidan suratga tushurilgan qiziqarli serialni tomosha qilishni taklif qilamiz. Filmda asosiy rollarni Ahad Qayum, Saida Saidbekova, Sevara Solieva, Luiza Rasulova, Tal'at Yuldashev, Barno Yarasheva, Barno Kodirova, Rajab Adashev, Aleksandr Bakjonov, Mehri Bekjonovalar, Madina Muhtorova, Zokir Ochildiyev, Tolib Mo'minov, Isroil Saidumarov, Gulxumor Abdullaeva egallagan. Shuningdek, rollarda: Odinaxon Zokirova, Sardor Hojakbarov, Shukurxon G`ofurov, Diyor Ismoilov, Maftuna Sadullaeva, Sevinch Yo`ldosheva va boshqalar ishtirok etishganlar.

MI

General
Complete name : E:\Cinema\Sinovli dunyo\Sinovli dunyo 02-qism.mp4
Format : MPEG-4
Format profile : Base Media
Codec ID : isom (isom/iso2/avc1/mp41)
File size : 420 MiB
Duration : 22 min 21 s
Overall bit rate : 2 627 kb/s
Writing application : Lavf57.2.100
Video
ID : 1
Format : AVC
Format/Info : Advanced Video Codec
Format profile : High@L4
Format settings : CABAC / 2 Ref Frames
Format settings, CABAC : Yes
Format settings, ReFrames : 2 frames
Codec ID : avc1
Codec ID/Info : Advanced Video Coding
Duration : 22 min 21 s
Bit rate : 2 495 kb/s
Width : 1 920 pixels
Height : 1 080 pixels
Display aspect ratio : 16:9
Frame rate mode : Constant
Frame rate : 25.000 FPS
Color space : YUV
Chroma subsampling : 4:2:0
Bit depth : 8 bits
Scan type : Progressive
Bits/(Pixel*Frame) : 0.048
Stream size : 399 MiB (95%)
Color range : Limited
Color primaries : BT.709
Transfer characteristics : BT.709
Matrix coefficients : BT.709
Audio
ID : 2
Format : AAC
Format/Info : Advanced Audio Codec
Format profile : LC
Codec ID : mp4a-40-2
Duration : 22 min 21 s
Bit rate mode : Constant
Bit rate : 126 kb/s
Channel(s) : 2 channels
Channel positions : Front: L R
Sampling rate : 44.1 kHz
Frame rate : 43.066 FPS (1024 SPF)
Compression mode : Lossy
Stream size : 20.1 MiB (5%)
Language : English
Default : Yes
Alternate group : 1

Yangi qismlar qo`shib boriladi

Har bir qism qo'shilganida yangi torrent yaratiladi. Yangi qismlarni ko'chirib olish uchun foydalanuvchilar qilishi kerak bo'lgan amallar:
1. ko'chirishni to'xtatish,
2. torrent dasturingizdan eski torrentni o'chirib tashlash (eski qismlarni o'chirish shart emas),
3. yangi torrentni yuklash va o'z dasturingizda eskisini o'rniga yangi torrentni ishga tushirish, yangi qismlarni ko'chirish uchun dasturingizga eski saqlangan qismlar papkasi yo'lagini ko'rsatib o'tishingiz kerak bo'ladi.
Sizni dasturingiz shu vaqtda eski papkani tekshirishdan (хеширование) o'tkazishi kerak (agar tekshirish amalga oshmasa - unda o'zingiz yordam bering), va shunda sizda mavjud bo'lmagan qismlarni yuklab olish boshlanadi. Bunday holatda eski qismlar o'chib ketmaydi, tarqatishda davom etadi!
Agar siz eski qismlarni allaqachon o'chirib yuborgan bo`lsangiz, unda yangi torrent ishga tushirilgan vaqtda kerakli joylarga "галочка" qo'yib eski qismlarni ham qaytadan yuklashingiz mumkin. Iloji boricha eski qismlarni uzoq vaqt davomida o'chirmaslikka harakat qiling, chunki tarqatuvchi shaxs (релизёр) eski qismlarni tarqatishga emas, yangi qismlarni joylashga e'tiborini qaratishi kerak.


So‘ngi marta tahrirlandi: maxa (2018-10-02 22:22), Jami tahrirlangan 26 marta
Profil ShX

XVII

Jins:
Ko‘rsatilmagan
Staj:
8 oy 11 kun
Xabarlar:
118

Qayerdan: Surkhandarya

Taqiq:

bu kino ham to`liq qayta ovozlashtirilganmi? )

Mavzu yaratish 22-Avg-2018 10:12 (55 daqiqa o‘tgach)

Iqitibos

Profil ShX

maxa ®

Jins:
Yigit
Staj:
8 oy 23 kun
Xabarlar:
98
Taqiq:

5781bu kino ham to`liq qayta ovozlashtirilganmi? )
Bu kino emas yangi serial(Premera)

Mavzu yaratish 22-Avg-2018 10:26 (13 daqiqa o‘tgach)

Iqitibos

Profil ShX

maxa ®

Jins:
Yigit
Staj:
8 oy 23 kun
Xabarlar:
98
Taqiq:

3-qism qo'shildi. Torrent faylni yangilang!

Mavzu yaratish 22-Avg-2018 20:57 (10 soat o‘tgach)

Iqitibos

Profil ShX

AxeL

Jins:
Yigit
Staj:
8 oy 24 kun
Xabarlar:
610

Qayerdan: Gronland, Norway

Taqiq:

Bu serialni kimdir ko'rdimi, ko'rishga arziydimi? Fitnaga o'xshagan serialmasmi mobodo...

Mavzu yaratish 22-Avg-2018 23:16 (2 soat 18 daqiqa o‘tgach)

Iqitibos

Profil ShX

maxa ®

Jins:
Yigit
Staj:
8 oy 23 kun
Xabarlar:
98
Taqiq:

4-qism qo'shildi. Torrent faylni yangilang!

Mavzu yaratish 23-Avg-2018 19:12 (19 soat o‘tgach)

Iqitibos

Profil ShX

maxa ®

Jins:
Yigit
Staj:
8 oy 23 kun
Xabarlar:
98
Taqiq:

5-qism qo'shildi. Torrent faylni yangilang!

Mavzu yaratish 24-Avg-2018 22:43 (1 kun 3 soat o‘tgach)

Iqitibos

Profil ShX

maxa ®

Jins:
Yigit
Staj:
8 oy 23 kun
Xabarlar:
98
Taqiq:

6-qism qo'shildi. Torrent faylni yangilang!

Mavzu yaratish 25-Avg-2018 19:44 (21 soat o‘tgach)

Iqitibos

Profil ShX

maxa ®

Jins:
Yigit
Staj:
8 oy 23 kun
Xabarlar:
98
Taqiq:

7-qism qo'shildi. Torrent faylni yangilang!

Mavzu yaratish 27-Avg-2018 06:02 (1 kun 10 soat o‘tgach)

Iqitibos

Profil ShX

maxa ®

Jins:
Yigit
Staj:
8 oy 23 kun
Xabarlar:
98
Taqiq:

8-qism qo'shildi. Torrent faylni yangilang!

Mavzu yaratish 27-Avg-2018 19:13 (13 soat o‘tgach)

Iqitibos

Profil ShX

maxa ®

Jins:
Yigit
Staj:
8 oy 23 kun
Xabarlar:
98
Taqiq:

9-qism qo'shildi. Torrent faylni yangilang!

Mavzu yaratish 28-Avg-2018 21:36 (1 kun 2 soat o‘tgach)

Iqitibos

Profil ShX

maxa ®

Jins:
Yigit
Staj:
8 oy 23 kun
Xabarlar:
98
Taqiq:

10-qism qo'shildi. Torrent faylni yangilang!

Mavzu yaratish 30-Avg-2018 20:18 (1 kun 22 soat o‘tgach)

Iqitibos

Profil ShX

maxa ®

Jins:
Yigit
Staj:
8 oy 23 kun
Xabarlar:
98
Taqiq:

11-qism qo'shildi. Torrent faylni yangilang!

Mavzu yaratish 31-Avg-2018 19:28 (23 soat o‘tgach)

Iqitibos

Profil ShX

maxa ®

Jins:
Yigit
Staj:
8 oy 23 kun
Xabarlar:
98
Taqiq:

12-qism qo'shildi. Torrent faylni yangilang!

Mavzu yaratish 03-Sen-2018 21:59 (3 kun o‘tgach)

Iqitibos

Profil ShX

maxa ®

Jins:
Yigit
Staj:
8 oy 23 kun
Xabarlar:
98
Taqiq:

13-16-qismlar qo'shildi. Torrent faylni yangilang!

Mavzu yaratish 04-Sen-2018 21:03 (23 soat o‘tgach)

Iqitibos

Profil ShX
Xabarlarni ko‘rsatish:    

Hozirgi vaqt: 11-Dek 04:12

Vaqtlar farqi: UTC + 5



Siz mavzu yaratishingiz mumkin emas
Siz xabarlarga javob qaytarishingiz mumkin emas
Siz o‘z xabarlaringizni tahrirlashingiz mumkin emas
Siz o‘z xabarlaringizni o‘chirishingiz mumkin emas
Siz so‘rovlarda ovoz berishingiz mumkin emas
Siz xabalarga fayllarni biriktirishingiz mumkin emas
Siz fayllarni ko‘chirishingiz mumkin emas