˂
˃
Tarqatmalar statistikasi
Ko‘chirmoqdaman: [ 1 ]
Ko‘chirib bo‘ldim: [ 10 ]
 
     
 
 

N.U.R.I.K.B.E.K ®

Jins:
Yigit
Staj:
1 yil 2 oy
Xabarlar:
365

Qayerdan: Jizzax. Paxtakor

Taqiq:

-Smolfut | Смолфут | Smallfoot
--Chiqqan yili: 2018
Davlat: AQSH
Janr: Multfilm, Hayoliy, Tasavvur, Oilaviy, Musiqiy, Sarguzasht, Kulguli.
Davomiyligi: 01:36:18
Tarjima: Professional
Tarjima #1: Professional MY5TV O'zbek Tilida
Tarjima #2: Professional Rus Tilida--Rejissyor: Keri Kirkpatrik, Jeyson Reysi.--Rollarni ovozlashtirganlar: Chenning Tatum, Jeyms Korden, Zendaya Koleman, Kommon, Lebron Jeyms, Denni Devito, Jina Rodrigez, Yara Shaxidi, Eli Genri, Jimmi Tatro.--Tavsif: Smallfoot "Bigfoot afsonasini haqiqatga aylantiradi. Unda yosh yigit Yeti hech bir inson ko'rmagan haqiqatga duch keladi.
"Smallfoot" ning yangiliklari uning shon-shuhratini va orzularining qizini yutib olish imkoniyatini beradi
"Smallfoot" ning yangiliklari uning shon-shuhratini va sevgsn qizini qaytarish imkoniyatini beradi. Va hozircha oddiy qasamyod etakchilar orasida katta qiziqish uyg'otmoqda. Endi ular o'zlarining kichik qorli qishloqlaridan tashqarida yashaydigan boshqa narsalar haqida hayron bo'lishmoqda.--Videoning sifati: BDRip
Video format: MKV--Video: Xvid 720x304 23.976 fps 1 714 kb/s
Audio: MP3 48000Hz stereo 128kbps O'zbek Tili
Audio 2: Dolby AC3 48000Hz 6ch 384kbps Rus Tili--

Media Info

General
Format : Matroska
Format version : Version 4 / Version 2
File size : 1.50 GiB
Duration : 1 h 36 min
Overall bit rate : 2 228 kb/s
Encoded date : UTC 2019-01-05 20:08:13
Writing application : mkvmerge v15.0.0 ('Duel with the Devil') 64-bit
Writing library : libebml v1.3.5 + libmatroska v1.4.5
Video
ID : 1
Format : MPEG-4 Visual
Format profile : Advanced Simple@L5
Format settings, BVOP : 1
Format settings, QPel : No
Format settings, GMC : No warppoints
Format settings, Matrix : Custom
Codec ID : V_MS/VFW/FOURCC / XVID
Codec ID/Hint : XviD
Duration : 1 h 36 min
Bit rate : 1 714 kb/s
Width : 720 pixels
Height : 304 pixels
Display aspect ratio : 2.35:1
Frame rate mode : Constant
Frame rate : 23.976 (23976/1000) FPS
Original frame rate : 23.976 (24000/1001) FPS
Color space : YUV
Chroma subsampling : 4:2:0
Bit depth : 8 bits
Scan type : Progressive
Compression mode : Lossy
Bits/(Pixel*Frame) : 0.327
Stream size : 1.15 GiB (77%)
Writing library : XviD 73
Default : Yes
Forced : No
Audio #1
ID : 2
Format : MPEG Audio
Format version : Version 1
Format profile : Layer 3
Mode : Joint stereo
Codec ID : A_MPEG/L3
Codec ID/Hint : MP3
Duration : 1 h 36 min
Bit rate mode : Constant
Bit rate : 128 kb/s
Channel(s) : 2 channels
Sampling rate : 48.0 kHz
Frame rate : 41.667 FPS (1152 SPF)
Compression mode : Lossy
Stream size : 88.2 MiB (6%)
Title : O'zbek Tili
Writing library : LAME3.99.5
Language : Uzbek
Default : Yes
Forced : No
Audio #2
ID : 3
Format : AC-3
Format/Info : Audio Coding 3
Format settings, Endianness : Big
Codec ID : A_AC3
Duration : 1 h 36 min
Bit rate mode : Constant
Bit rate : 384 kb/s
Channel(s) : 6 channels
Channel positions : Front: L C R, Side: L R, LFE
Sampling rate : 48.0 kHz
Frame rate : 31.250 FPS (1536 SPF)
Bit depth : 16 bits
Compression mode : Lossy
Stream size : 264 MiB (17%)
Title : Rus Tili
Language : Russian
Service kind : Complete Main
Default : No
Forced : No
LAVHALAR
Profil ShX

muhammaddiyor104

Jins:
Ko‘rsatilmagan
Staj:
10 oy 4 kun
Xabarlar:
15
Taqiq:

ozgina razdacha qivorila

Mavzu yaratish 10-Yan-2019 19:48 (3 kun o‘tgach)

Iqitibos

Profil ShX
Xabarlarni ko‘rsatish:    

Hozirgi vaqt: 23-Yan 03:09

Vaqtlar farqi: UTC + 5



Siz mavzu yaratishingiz mumkin emas
Siz xabarlarga javob qaytarishingiz mumkin emas
Siz o‘z xabarlaringizni tahrirlashingiz mumkin emas
Siz o‘z xabarlaringizni o‘chirishingiz mumkin emas
Siz so‘rovlarda ovoz berishingiz mumkin emas
Siz xabalarga fayllarni biriktirishingiz mumkin emas
Siz fayllarni ko‘chirishingiz mumkin emas