˂
˃
Tarqatmalar statistikasi
Yoʻq
 
     
 
 

Gr@nd ®

Jins:
Yigit
Staj:
1 yil 1 oy
Xabarlar:
158

Qayerdan: Jizzax Forish

Taqiq:

-So`ngi boxodir | Последний богатырь- Davlat: Rossiya
Janr: Kulguli, oilaviy, fentеzi
Chiqqan yili: 2017
Davomiyligi: 01:53:48-Tarjima: Professional (dublyaj qilingan) O'zbek tilida-Rejissiyor: Dmitriy Dyachеnko-Rollarda: Viktor Xorinyak, Mila Sivatskaya, Еkatеrina Vilkova, Еlеna Yakovlеva, Konstantin Lavronеnko, Еvgеniy Dyatlov, Alеksandr Sеmchеv, Sеrgеy Burunov, Alеksandr Kuxarеnko, Marina Kalеtskaya-Описание: Oddiy odam Ivan, tasodifan, zamonaviy Moskvadan ajoyib mamlakat Belogoriyaga ko'chirildi. Bu parallel dunyoda u erda rus ertaklari qahramonlari yashaydi, sehr - bu kundalik hayotning ajralmas qismidir va bahsli masalalar qahramon qilichlardagi janglar bilan hal qilinadi. Kutilmagan holda, Ivan yngil va qorong'i kuchlar o'rtasidagi kurash markazida turibdi, biroq har bir fikrga ko'ra, u uchun tayyorlangan voqealarda asosiy rol o'ynash nima uchun aniq emas.-Videoning sifati: WEB-DLRip
Формат видео: MKV-Video: MPEG4 Video (H264) 1920x804 24fps 4 412 Kbps
Audio: Dolby AC3 48000Hz / 6ch / 384 kbps Rus
Audio: MP3 48000Hz / 2ch / 128kbps Uzb
-

MediaInfo

General
Unique ID : 246642365453508400837814412005325697614 (0xB98D977AD710CA5A84BC30B8CE34724E)
Format : Matroska
Format version : Version 4 / Version 2
File size : 3.99 GiB
Duration : 1h 53mn
Overall bit rate : 5 024 Kbps
Movie name : Xusan_Gr@nd
Encoded date : UTC 2017-12-19 18:32:03
Writing application : mkvmerge v6.8.0 ('Theme for Great Cities') 64bit built on Mar 2 2014 21:34:26
Writing library : libebml v1.3.0 + libmatroska v1.4.1
Video
ID : 1
Format : AVC
Format/Info : Advanced Video Codec
Format profile : High@L4.0
Format settings, CABAC : Yes
Format settings, ReFrames : 5 frames
Codec ID : V_MPEG4/ISO/AVC
Duration : 1h 53mn
Bit rate : 4 412 Kbps
Width : 1 920 pixels
Height : 804 pixels
Display aspect ratio : 2.40:1
Frame rate : 24.000 fps
Color space : YUV
Chroma subsampling : 4:2:0
Bit depth : 8 bits
Scan type : Progressive
Bits/(Pixel*Frame) : 0.119
Stream size : 3.51 GiB (88%)
Title : POSLEDNIJ_BOGATYR_WEB_DL_1080p-BLUEBIRD
Language : English
Default : Yes
Forced : No
Color primaries : BT.709-5, BT.1361, IEC 61966-2-4, SMPTE RP177
Transfer characteristics : BT.709-5, BT.1361
Matrix coefficients : BT.709-5, BT.1361, IEC 61966-2-4 709, SMPTE RP177
Audio #1
ID : 2
Format : AC-3
Format/Info : Audio Coding 3
Mode extension : CM (complete main)
Format settings, Endianness : Big
Codec ID : A_AC3
Duration : 1h 53mn
Bit rate mode : Constant
Bit rate : 384 Kbps
Channel(s) : 6 channels
Channel positions : Front: L C R, Side: L R, LFE
Sampling rate : 48.0 KHz
Bit depth : 16 bits
Compression mode : Lossy
Stream size : 313 MiB (8%)
Title : [ORIGINAL] DD 5.1 @ 384 kbps (iTunes)
Language : Russian
Default : Yes
Forced : No
Audio #2
ID : 3
Format : MPEG Audio
Format version : Version 1
Format profile : Layer 3
Mode : Joint stereo
Mode extension : MS Stereo
Codec ID : A_MPEG/L3
Codec ID/Hint : MP3
Duration : 1h 53mn
Bit rate mode : Constant
Bit rate : 128 Kbps
Channel(s) : 2 channels
Sampling rate : 44.1 KHz
Compression mode : Lossy
Stream size : 104 MiB (3%)
Title : Xusan_Gr@nd
Writing library : LAME3.98.2
Language : Uzbek
Default : No
Forced : No
-
Profil ShX

darkwin

Jins:
Ko‘rsatilmagan
Staj:
10 oy 30 kun
Xabarlar:
2
Taqiq:

rus tilida ku?

Mavzu yaratish 26-Dek-2017 18:05 (6 kun o‘tgach)

Iqitibos

Profil ShX

MRLG

Jins:
Yigit
Staj:
1 yil 3 oy
Xabarlar:
524
Taqiq:

darkwin, rus va o'zbek tillarida. kino ko'rsatadigan lyuboy dasturda filmni ovoz yo'lagini o'zgartirish funksiyasi mavjud. Bu yerdagi filmlar o'zbek tilida deydilimi demak o'zbek tilidagi audio yo'lagi ham mavjud. Aybni o'zingizdan qidiring.

Mavzu yaratish 26-Dek-2017 18:20 (15 daqiqa o‘tgach)

Iqitibos

Profil ShX

darkwin

Jins:
Ko‘rsatilmagan
Staj:
10 oy 30 kun
Xabarlar:
2
Taqiq:

xa topdim avdio dorojkada ekan raxmat!

Mavzu yaratish 26-Dek-2017 19:48 (1 soat 28 daqiqa o‘tgach)

Iqitibos

Profil ShX
Xabarlarni ko‘rsatish:    

Hozirgi vaqt: 21-Noy 18:54

Vaqtlar farqi: UTC + 5



Siz mavzu yaratishingiz mumkin emas
Siz xabarlarga javob qaytarishingiz mumkin emas
Siz o‘z xabarlaringizni tahrirlashingiz mumkin emas
Siz o‘z xabarlaringizni o‘chirishingiz mumkin emas
Siz so‘rovlarda ovoz berishingiz mumkin emas
Siz xabalarga fayllarni biriktirishingiz mumkin emas
Siz fayllarni ko‘chirishingiz mumkin emas