˂
˃
Tarqatmalar statistikasi
Yoʻq
 
     
 
 

Gr@nd ®

Jins:
Yigit
Staj:
1 yil 1 oy
Xabarlar:
158

Qayerdan: Jizzax Forish

Taqiq:

-So`ngi boxodir | Последний богатырь- Davlat: Rossiya
Janr: Kulguli, oilaviy, fentеzi
Chiqqan yili: 2017
Davomiyligi: 01:53:48-Tarjima: Professional (dublyaj qilingan) O'zbek tilida-Rejissiyor: Dmitriy Dyachеnko-Rollarda: Viktor Xorinyak, Mila Sivatskaya, Еkatеrina Vilkova, Еlеna Yakovlеva, Konstantin Lavronеnko, Еvgеniy Dyatlov, Alеksandr Sеmchеv, Sеrgеy Burunov, Alеksandr Kuxarеnko, Marina Kalеtskaya-Описание: Oddiy odam Ivan, tasodifan, zamonaviy Moskvadan ajoyib mamlakat Belogoriyaga ko'chirildi. Bu parallel dunyoda u erda rus ertaklari qahramonlari yashaydi, sehr - bu kundalik hayotning ajralmas qismidir va bahsli masalalar qahramon qilichlardagi janglar bilan hal qilinadi. Kutilmagan holda, Ivan yngil va qorong'i kuchlar o'rtasidagi kurash markazida turibdi, biroq har bir fikrga ko'ra, u uchun tayyorlangan voqealarda asosiy rol o'ynash nima uchun aniq emas.-Videoning sifati: WEB-DLRip
Формат видео: MKV-Video: Xvid 720x304 24fps 1 410 Kbps
Audio: Dolby AC3 48000Hz / 6ch / 384 kbps Rus
Audio: MP3 48000Hz / 2ch / 128kbps Uzb
-

MediaInfo

General
Unique ID : 174609150743502729365329487682234289529 (0x835C7FCB723E890C80D40B944EA50D79)
Format : Matroska
Format version : Version 4 / Version 2
File size : 1.56 GiB
Duration : 1h 53mn
Overall bit rate : 1 961 Kbps
Movie name : Xusan_Gr@nd
Encoded date : UTC 2017-12-19 18:42:38
Writing application : mkvmerge v6.8.0 ('Theme for Great Cities') 64bit built on Mar 2 2014 21:34:26
Writing library : libebml v1.3.0 + libmatroska v1.4.1
Video
ID : 1
Format : MPEG-4 Visual
Format profile : Advanced Simple@L5
Format settings, BVOP : Yes
Format settings, QPel : No
Format settings, GMC : No warppoints
Format settings, Matrix : Custom
Codec ID : XVID
Codec ID/Hint : XviD
Duration : 1h 53mn
Bit rate : 1 410 Kbps
Width : 720 pixels
Height : 304 pixels
Display aspect ratio : 2.35:1
Frame rate : 24.000 fps
Color space : YUV
Chroma subsampling : 4:2:0
Bit depth : 8 bits
Scan type : Progressive
Compression mode : Lossy
Bits/(Pixel*Frame) : 0.268
Stream size : 1.12 GiB (72%)
Writing library : XviD 73
Default : Yes
Forced : No
Audio #1
ID : 2
Format : AC-3
Format/Info : Audio Coding 3
Mode extension : CM (complete main)
Format settings, Endianness : Big
Codec ID : A_AC3
Duration : 1h 53mn
Bit rate mode : Constant
Bit rate : 384 Kbps
Channel(s) : 6 channels
Channel positions : Front: L C R, Side: L R, LFE
Sampling rate : 48.0 KHz
Bit depth : 16 bits
Compression mode : Lossy
Stream size : 313 MiB (20%)
Default : Yes
Forced : No
Audio #2
ID : 3
Format : MPEG Audio
Format version : Version 1
Format profile : Layer 3
Mode : Joint stereo
Mode extension : MS Stereo
Codec ID : A_MPEG/L3
Codec ID/Hint : MP3
Duration : 1h 53mn
Bit rate mode : Constant
Bit rate : 128 Kbps
Channel(s) : 2 channels
Sampling rate : 44.1 KHz
Compression mode : Lossy
Stream size : 104 MiB (7%)
Title : Xusan_Gr@nd
Writing library : LAME3.98.2
Language : Uzbek
Default : No
Forced : No
-
Profil ShX

vuelta

Jins:
Yigit
Staj:
1 yil 3 oy
Xabarlar:
299
Taqiq:

bunisi talablarga binoanmi)

Mavzu yaratish 20-Dek-2017 10:21 (33 daqiqa o‘tgach)

Iqitibos

Profil ShX

BestBoy

Jins:
Yigit
Staj:
1 yil 1 oy
Xabarlar:
63
Taqiq:

Ajoyib!

Mavzu yaratish 20-Dek-2017 12:52 (2 soat 30 daqiqa o‘tgach)

Iqitibos

Profil ShX

vuelta

Jins:
Yigit
Staj:
1 yil 3 oy
Xabarlar:
299
Taqiq:

Bahodir masmi

Mavzu yaratish 20-Dek-2017 13:02 (10 daqiqa o‘tgach)

Iqitibos

Profil ShX

BestBoy

Jins:
Yigit
Staj:
1 yil 1 oy
Xabarlar:
63
Taqiq:

1062Bahodir masmi
nma farqi bor boxosh deymizda bahodir degan ismniyam))

Mavzu yaratish 20-Dek-2017 14:46 (1 soat 43 daqiqa o‘tgach)

Iqitibos

Profil ShX

BestBoy

Jins:
Yigit
Staj:
1 yil 1 oy
Xabarlar:
63
Taqiq:

OLTIN TARQATMA! KO'CHIRILGANLAR HISOBGA OLINMAYDI! Бу нега керак?

Mavzu yaratish 20-Dek-2017 17:11 (2 soat 24 daqiqa o‘tgach)

Iqitibos

Profil ShX

MRLG

Jins:
Yigit
Staj:
1 yil 3 oy
Xabarlar:
524
Taqiq:

1068OLTIN TARQATMA! KO'CHIRILGANLAR HISOBGA OLINMAYDI! Бу нега керак?
Kiril alifbosida yozish kerak emas.

Mavzu yaratish 20-Dek-2017 17:16 (5 daqiqa o‘tgach)

Iqitibos

Profil ShX

vuelta

Jins:
Yigit
Staj:
1 yil 3 oy
Xabarlar:
299
Taqiq:

BestBoy, oddiy narsani murakkablashtirishda bu va uzligidan qochishdek gap yoki biron bir chet el tilini urganishda boxodir ga uxshagan soz uchrab qolsa kitobdanam topolmaysiz

Mavzu yaratish 20-Dek-2017 21:18 (4 soat o‘tgach)

Iqitibos

Profil ShX

BestBoy

Jins:
Yigit
Staj:
1 yil 1 oy
Xabarlar:
63
Taqiq:

reliz ajoyib lekin film kutganimday qiziq emas ekan Dyunkerk degan film bo'lipti saytlarda chiqgan ushani HD varianti bo'lsa ajoyib bolardi chunki ajoyib film kinopoisk va imdp da yuqori baholar qoyilgan

Mavzu yaratish 21-Dek-2017 23:16 (1 kun 1 soat o‘tgach)

Iqitibos

Profil ShX
Xabarlarni ko‘rsatish:    

Hozirgi vaqt: 21-Noy 19:39

Vaqtlar farqi: UTC + 5



Siz mavzu yaratishingiz mumkin emas
Siz xabarlarga javob qaytarishingiz mumkin emas
Siz o‘z xabarlaringizni tahrirlashingiz mumkin emas
Siz o‘z xabarlaringizni o‘chirishingiz mumkin emas
Siz so‘rovlarda ovoz berishingiz mumkin emas
Siz xabalarga fayllarni biriktirishingiz mumkin emas
Siz fayllarni ko‘chirishingiz mumkin emas