Tarqatmalar statistikasi
Yoʻq
 
     
 
 

Frozen ®

Jins:
Yigit
Staj:
1 yil 1 oy
Xabarlar:
58

Qayerdan: Toshkent, Navoi

Taqiq:

Soqov kelin
Davlat: O'zbekiston
Janr: Komediya
Chiqqan yili: 2017
Davomiyligi: 01:11:33
-Videoning sifati: Mpeg4
Video formati: MP4
-Video: Mp4v Video (H264) 1280x720 18.0fps
Audio: AAC 44100Hz 2ch 125kbps
-

MediaInfo

E:\kino\Soqov Kelin[uztracker.me].mp4
General
Complete name : E:\kino\Soqov Kelin[uztracker.me].mp4
Format : MPEG-4
Format profile : Base Media
Codec ID : isom
File size : 1.95 GiB
Duration : 1h 11mn
Overall bit rate mode : Variable
Overall bit rate : 3 907 Kbps
Encoded date : UTC 2017-11-12 07:45:17
Tagged date : UTC 2017-11-12 07:45:17
Writing application : FormatFactory : www.pcfreetime.com
Video #1
ID : 1
Format : MPEG-4 Visual
Format profile : Simple@L1
Format settings, BVOP : No
Format settings, QPel : No
Format settings, GMC : No warppoints
Format settings, Matrix : Default (H.263)
Codec ID : 20
Duration : 1h 11mn
Bit rate mode : Variable
Bit rate : 3 779 Kbps
Maximum bit rate : 15.5 Mbps
Width : 1 280 pixels
Height : 720 pixels
Display aspect ratio : 16:9
Frame rate mode : Constant
Frame rate : 30.000 fps
Color space : YUV
Chroma subsampling : 4:2:0
Bit depth : 8 bits
Scan type : Progressive
Compression mode : Lossy
Bits/(Pixel*Frame) : 0.137
Stream size : 1.89 GiB (97%)
Writing library : Lavc53.8.0
Encoded date : UTC 2017-11-12 07:45:17
Tagged date : UTC 2017-11-12 07:46:37
Audio #2
ID : 2
Format : AAC
Format/Info : Advanced Audio Codec
Format profile : LC
Codec ID : 40
Duration : 1h 11mn
Bit rate mode : Variable
Bit rate : 126 Kbps
Maximum bit rate : 233 Kbps
Channel(s) : 2 channels
Channel positions : Front: L R
Sampling rate : 44.1 KHz
Compression mode : Lossy
Stream size : 64.3 MiB (3%)
Encoded date : UTC 2017-11-12 07:46:34
Tagged date : UTC 2017-11-12 07:46:37
Profil ShX

BestBoy

Jins:
Yigit
Staj:
11 oy 15 kun
Xabarlar:
63
Taqiq:

reklama bormi?

Mavzu yaratish 12-Noy-2017 13:25 (14 daqiqa o‘tgach)

Iqitibos

Profil ShX
Xabarlarni ko‘rsatish:    

Hozirgi vaqt: 21-Sen 11:48

Vaqtlar farqi: UTC + 5



Siz mavzu yaratishingiz mumkin emas
Siz xabarlarga javob qaytarishingiz mumkin emas
Siz o‘z xabarlaringizni tahrirlashingiz mumkin emas
Siz o‘z xabarlaringizni o‘chirishingiz mumkin emas
Siz so‘rovlarda ovoz berishingiz mumkin emas
Siz xabalarga fayllarni biriktirishingiz mumkin emas
Siz fayllarni ko‘chirishingiz mumkin emas