˂
˃
Tarqatmalar statistikasi
Ko‘chirmoqdaman: [ 3 ]
Ko‘chirib bo‘ldim: [ 12 ]
 
     
 
 

Asilbek 007 ®

Jins:
Ko‘rsatilmagan
Staj:
7 oy 25 kun
Xabarlar:
13
Taqiq:

Super Oila 2 / Суперсемейка 2 / Incredibles 2- Chiqqan Yili: 2018
Davlat: AQSH
Janr: Multfilm, Fantastika, Jangari, Komediya, Sarguzasht, Oilaviy
Davomiyligi: 01:58:46
Tarjima: Dublyaj Qilingan (Rus tilida) (Reklama)-Rejissyor: Bred Bayrd / Brad Bird-Rollarda: Kreyg T. Nelson, Holli Hanter, Sara Vauell, Hak Milner, Ketrin Kiner, Ilay Fuchayl, Bob OdinKyork, Samuel L Jekson, Maykl Byord, Sofiya Bush-Tavsif: Super-oilaning birinchi qismida sodir bo'lgan voqealardan keyin jurnalistlar e'tiborini tortmoqda. To'satdan televizor ekranida eri bilan taqqoslaganda, Miss Clark ajoyib ko'rinadi. Hurmatli janob janoblari o'z uylarida o'tirib, bolalariga qarashadi, ularning har birida o'zlarining katta kuchlaridan norozi bo'lish uchun o'z sabablari bor. Biroq, oila muammolari, yangi turmush o'rtoqlarning xotirjamligiga yangi kuchli dushman tomonidan tahdid solib qolganda paydo bo'ladi.- -Sifat: WEB-DLRip
Format: MP4
Video: AVC, 1134 Kbps 720x304
Audio: AC3, 2 ch, 256 kb/s

MediaInfo

General
Format : MPEG-4
Format profile : Base Media
Codec ID : isom (isom/iso2/avc1/mp41)
File size : 1.16 GiB
Duration : 1 h 58 min
Overall bit rate : 1 394 kb/s
Writing application : Lavf57.71.100
Video
ID : 1
Format : AVC
Format/Info : Advanced Video Codec
Format profile : Main@L3
Format settings : CABAC / 1 Ref Frames
Format settings, CABAC : Yes
Format settings, ReFrames : 1 frame
Format settings, GOP : M=1, N=25
Codec ID : avc1
Codec ID/Info : Advanced Video Coding
Duration : 1 h 58 min
Bit rate : 1 134 kb/s
Width : 720 pixels
Height : 304 pixels
Display aspect ratio : 2.35:1
Frame rate mode : Constant
Frame rate : 23.976 (24000/1001) FPS
Color space : YUV
Chroma subsampling : 4:2:0
Bit depth : 8 bits
Scan type : Progressive
Bits/(Pixel*Frame) : 0.216
Stream size : 963 MiB (81%)
Audio
ID : 2
Format : AC-3
Format/Info : Audio Coding 3
Codec ID : ac-3
Duration : 1 h 58 min
Bit rate mode : Constant
Bit rate : 256 kb/s
Channel(s) : 2 channels
Channel positions : Front: L R
Sampling rate : 48.0 kHz
Frame rate : 31.250 FPS (1536 SPF)
Bit depth : 16 bits
Compression mode : Lossy
Stream size : 217 MiB (18%)
Service kind : Complete Main
Default : Yes
Alternate group : 1
-


So‘ngi marta tahrirlandi: Asilbek 007 (2018-10-24 00:59), Jami tahrirlangan 7 marta
Profil ShX

AxeL

Jins:
Yigit
Staj:
8 oy 24 kun
Xabarlar:
610

Qayerdan: Gronland, Norway

Taqiq:

6505
Video: XviD, 1447 Кбит/с, 720x304
Audio: AC3, 2 ch, 192 Кбит/с
lotin alifbosida yozing, keyin media info ham qo'ying

Mavzu yaratish 24-Okt-2018 00:42 (10 daqiqa o‘tgach)

Iqitibos

Profil ShX

logan7272

Jins:
Yigit
Staj:
8 oy 8 kun
Xabarlar:
9

Qayerdan: Namangan

Taqiq:

o`zbek tiliga tarjima qilinganmi?

Mavzu yaratish 24-Okt-2018 18:01 (17 soat o‘tgach)

Iqitibos

Profil ShX

Asilbek 007 ®

Jins:
Ko‘rsatilmagan
Staj:
7 oy 25 kun
Xabarlar:
13
Taqiq:

6516o`zbek tiliga tarjima qilinganmi?
yo`q, tarjimasi emas, yaqin kunlarda joylanadi tarjimasi ham

Mavzu yaratish 24-Okt-2018 18:06 (4 daqiqa o‘tgach)

Iqitibos

Profil ShX
Xabarlarni ko‘rsatish:    

Hozirgi vaqt: 11-Dek 03:10

Vaqtlar farqi: UTC + 5



Siz mavzu yaratishingiz mumkin emas
Siz xabarlarga javob qaytarishingiz mumkin emas
Siz o‘z xabarlaringizni tahrirlashingiz mumkin emas
Siz o‘z xabarlaringizni o‘chirishingiz mumkin emas
Siz so‘rovlarda ovoz berishingiz mumkin emas
Siz xabalarga fayllarni biriktirishingiz mumkin emas
Siz fayllarni ko‘chirishingiz mumkin emas