Vampire_1987 ®

Jins:
Ko‘rsatilmagan
Staj:
10 oy 28 kun
Xabarlar:
98
Taqiq:

-Taqdir O'yini | Ва банк | All In -- Chiqqan yili: 2003
Davlat: Janubiy Koreya
Janr: Drama, Romantika,Jangari
Davomiyligi: ~45-60 min
Tarjima: [O'zbekiston] telekanali dublyaji--Rejissyor:Kang Sin-hyo, Yoo Cheol-yong--Rollarda: Li Byon Xon,Chi Son,Son Xyo Gyu,Pak Sol Mi,Li Dok Xva,Cho Kyon Xvan,Xo Chjun Xo,Pak Von Suk,Ki Dju Bon,Chxve Chjun Yon--Tavsif: Оставшийся в детстве сиротой Ким Ин-Ха воспитывается дядей, карточным игроком Ким Чи-Су. У смелого и надёжного парня появляется много близких друзей, в числе которых и сын из богатой семьи Цой Ён-Вон. Вскоре Ин-Ха встречает девушку по имени Мин Су-Ен, и двое молодых людей влюбляются друг в друга. Ин-Ха знакомит Ён-Вона с Су-Ен, и тот влюбляется в девушку своего друга. Далее Ин-Ха, на которого падает подозрение в убийстве, подстроенное отцом Ён-Вона, вынужден нелегально бежать в Америку.-Здесь он знакомится с профессионалом карточных игр и начинает делать карьеру карточного игрока. Сначала он занимает первое место на международном конкурсе профессиональных игроков в покер, а затем изучает гостиничный и игровой бизнес. Добившись успеха в Америке, Ин Ха возвращается в Корею, где ему предстоит борьба с его лучшим другом, и в то же время роковым противником, Ён-Воном.-- --Sifat: TVRip
Format: AVI
Video#1: 640x480 30fps ~1490kbps
Video#2: 576x432 29.97fps 1319kbps
Audio: Dolby AC3 32000Hz stereo 112kbps (Rus)
Audio: MP3 44100Hz stereo 128kbps (Uzb)

Lavhalar

-

MI

General
Format : AVI
Format/Info : Audio Video Interleave
Format profile : OpenDML
Format settings : rec
File size : 742 MiB
Duration : 59mn 45s
Overall bit rate : 1 736 Kbps
Writing application : AVI-Mux GUI 1.17.8.3, Feb 16 201019:42:50
Video
ID : 0
Format : MPEG-4 Visual
Format settings, BVOP : Yes
Format settings, QPel : No
Format settings, GMC : No warppoints
Format settings, Matrix : Default (H.263)
Codec ID : DX50
Codec ID/Hint : DivX 5
Duration : 59mn 45s
Bit rate : 1 491 Kbps
Width : 640 pixels
Height : 480 pixels
Display aspect ratio : 4:3
Frame rate : 30.000 fps
Color space : YUV
Chroma subsampling : 4:2:0
Bit depth : 8 bits
Scan type : Progressive
Compression mode : Lossy
Bits/(Pixel*Frame) : 0.162
Stream size : 637 MiB (86%)
Writing library : DivX 5.0.2 (UTC 2002-05-16)
Audio #1
ID : 1
Format : MPEG Audio
Format version : Version 1
Format profile : Layer 3
Codec ID : 55
Codec ID/Hint : MP3
Duration : 59mn 45s
Bit rate mode : Constant
Bit rate : 128 Kbps
Channel(s) : 2 channels
Sampling rate : 44.1 KHz
Compression mode : Lossy
Stream size : 54.7 MiB (7%)
Alignment : Aligned on interleaves
Interleave, duration : 492 ms (14.77 video frames)
Interleave, preload duration : 208 ms
Title : 1 (1)
Audio #2
ID : 2
Format : AC-3
Format/Info : Audio Coding 3
Mode extension : CM (complete main)
Format settings, Endianness : Big
Codec ID : 2000
Duration : 59mn 45s
Bit rate mode : Constant
Bit rate : 112 Kbps
Channel(s) : 2 channels
Channel positions : Front: L R
Sampling rate : 32.0 KHz
Bit depth : 16 bits
Compression mode : Lossy
Stream size : 47.9 MiB (6%)
Alignment : Aligned on interleaves
Interleave, duration : 96 ms (2.88 video frames)
Interleave, preload duration : 192 ms


So‘ngi marta tahrirlandi: Vampire_1987 (2018-05-08 11:47), Jami tahrirlangan 2 marta
Profil ShX

Vampire_1987 ®

Jins:
Ko‘rsatilmagan
Staj:
10 oy 28 kun
Xabarlar:
98
Taqiq:

Oforum Kamchiliklari Ertaga Dovom Etiriladi!

Mavzu yaratish 26-Avg-2017 00:10 (1 daqiqa o‘tgach)

Iqitibos

Profil ShX

Mehmon

Jins:
Ko‘rsatilmagan
Taqiq:

iltimos, razdachaga turing. 78 foizda toxtab qoldi razdacha

Mavzu yaratish 11-Sen-2017 10:10 (16 kun o‘tgach)

Iqitibos

Mehmon

Jins:
Ko‘rsatilmagan
Taqiq:

iltimos, razdachaga turing. 74 foizda toxtab qoldi razdacha

Mavzu yaratish 11-Sen-2017 10:11 (1 daqiqa o‘tgach)

Iqitibos

Mehmon

Jins:
Ko‘rsatilmagan
Taqiq:

Iltimos razdachaga turing.

Mavzu yaratish 11-Sen-2017 19:53 (9 soat o‘tgach)

Iqitibos

Mehmon

Jins:
Ko‘rsatilmagan
Taqiq:

Iltimos razdachaga turing.

Mavzu yaratish 11-Sen-2017 19:53 (13 soniya o‘tgach)

Iqitibos

Mehmon

Jins:
Ko‘rsatilmagan
Taqiq:

Vampire_1987, Iltimos razdachaga turing. atigi 26 foiz qoldi.

Mavzu yaratish 11-Sen-2017 19:54 (1 daqiqa o‘tgach)

Iqitibos

N.U.R.I.K.B.E.K

Jins:
Yigit
Staj:
8 oy 16 kun
Xabarlar:
139

Qayerdan: Jizzax. Paxtakor

Taqiq:

Vampire_1987, Aztorrentdan foydalanib ko'rinchi

Mavzu yaratish 08-May-2018 17:26 (7 oy 26 kun o‘tgach)

Iqitibos

Profil ShX

N.U.R.I.K.B.E.K

Jins:
Yigit
Staj:
8 oy 16 kun
Xabarlar:
139

Qayerdan: Jizzax. Paxtakor

Taqiq:

Vampire_1987, qiziq xolat kamentari yozganimdan so'ng yuklavti

Mavzu yaratish 08-May-2018 17:32 (5 daqiqa o‘tgach)

Iqitibos

Profil ShX

N.U.R.I.K.B.E.K

Jins:
Yigit
Staj:
8 oy 16 kun
Xabarlar:
139

Qayerdan: Jizzax. Paxtakor

Taqiq:

Vampire_1987, shunaqa vaziyat yaqinda kliplar to'plamini kamentiga yozganimda bo'ludi ))

Mavzu yaratish 08-May-2018 17:34 (2 daqiqa o‘tgach)

Iqitibos

Profil ShX

UmarShoh

Jins:
Yigit
Staj:
4 oy 17 kun
Xabarlar:
330
Taqiq:

nega yuklamayabti !?

Mavzu yaratish 08-May-2018 18:11 (37 daqiqa o‘tgach)

Iqitibos

Profil ShX

N.U.R.I.K.B.E.K

Jins:
Yigit
Staj:
8 oy 16 kun
Xabarlar:
139

Qayerdan: Jizzax. Paxtakor

Taqiq:

Vampire_1987, qachon rzdacha bo'ladi

Mavzu yaratish 27-May-2018 14:08 (18 kun o‘tgach)

Iqitibos

Profil ShX

MRLG

Jins:
Yigit
Staj:
11 oy 6 kun
Xabarlar:
379
Taqiq:

N.U.R.I.K.B.E.K, bu foydalanuvchi umuman qo'ygan relizlarini tuzuk tarqatmagan shu vaqtgacha. 8 kundan beri "Stop" qilib qo'ygan. Profiliga kirsangiz ko'rasiz "To'qnashuv" degan filmni ko'chirishga qo'yib qo'yibdi.

Mavzu yaratish 27-May-2018 14:28 (19 daqiqa o‘tgach)

Iqitibos

Profil ShX

UmarShoh

Jins:
Yigit
Staj:
4 oy 17 kun
Xabarlar:
330
Taqiq:

Essiz, Essiz... Vampire_1987 oka siz bo'lmagan odam ekansiz!
Mani fikrimcha siz ataylab shunday qilasiz yuklab oluvchilar 1-2-yilda 1 ta serialni yuklab olsin deysizmi !

Mavzu yaratish 27-May-2018 14:53 (25 daqiqa o‘tgach)

Iqitibos

Profil ShX

UmarShoh

Jins:
Yigit
Staj:
4 oy 17 kun
Xabarlar:
330
Taqiq:

MRLG, Xudo xoxlasa oka o'zim shu seriallarni qayta reliz qilaman bundanda sifatliroq turini ! Shunda xechkim yillar davomida 1 ta seriallarni yuklashmaydi !

Mavzu yaratish 27-May-2018 14:55 (1 daqiqa o‘tgach)

Iqitibos

Profil ShX
Xabarlarni ko‘rsatish:    

Hozirgi vaqt: 22-Iyul 19:42

Vaqtlar farqi: UTC + 5



Siz mavzu yaratishingiz mumkin emas
Siz xabarlarga javob qaytarishingiz mumkin emas
Siz o‘z xabarlaringizni tahrirlashingiz mumkin emas
Siz o‘z xabarlaringizni o‘chirishingiz mumkin emas
Siz so‘rovlarda ovoz berishingiz mumkin emas
Siz xabalarga fayllarni biriktirishingiz mumkin emas
Siz fayllarni ko‘chirishingiz mumkin emas