˂
˃
 

Dj.Max ®

Jins:
Yigit
Staj:
5 oy
Xabarlar:
19

Qayerdan: Farg'ona

Taqiq:

Ted Jons sarguzashtlari / Тэд Джонс и Затерянный город / Tad the Lost Explorer-- Chiqqan yili: 2016
Davlat: Ispaniya
Janr: Multfilm, Sarguzasht, Komediya, Oilaviy
Davomiyligi: 01:29:15
Tarjima: [MY5 TV] telekanali dublyaji--Ssenariy: Xaver Lopez Barreyra, Gorka Magalon, Ignasio del Moral, Xordi Gasul, Nil Landau, Veronika Fernandes, Diego San Xose, Lilian Gonsales
Bastakor: Sakarias M. de la Riva
Rejissyor: Enrike Gato
Prodyusser: Jislen Barua, Xordi Gasul, Nikolas Matxi, Esekiel Nieto, Edmon Rosh--Rollarni ovozlashtirganlar: Oskar Barberand, Meritxel Ana, Belinda, Karles Canute, Michel Henner, Migel Anxel Jenner, Enrike Linares, Marta Marturel, Xose Mota, Pep Anton Munoz, Luis Posada, Xordi Royo--Tavsif: Ted, ajoyib kashfiyotlar va xavfli sarguzashtlarni sevadigan oddiy Chikagolik quruvchidir. U mashhur arxeologlar yanglishgan va topa olmagan Inklar xazinalarini qidirish uchun Peruga yuboriladi. Tedning xursandchiligi cheksiz edi, lekin u ertaga nima bo'lishini bilmas edi ...--Sifat: BDRip (720)
Format: AVI
Video: 1280x720 23.976fps 2943kbps
Audio: Uzbek / AAC / 2.0 / 48 kHz / 128 kbps / [MY5 TV]
Audio: Rus / AAC / 2.0 / 48 kHz / 128 kbps / [Central Production International Group]
Hajmi: 2.00 GB-

Media Info

General
Complete name                  : Ted Jons sarguzashtlari [Dj.Max].avi
Format                         : AVI
Format/Info                    : Audio Video Interleave
Format profile                 : OpenDML
Format settings                : rec
File size                      : 2.00 GiB
Duration                       : 1 h 29 min
Overall bit rate               : 3 210 kb/s
Movie name                     : Ted Jons sarguzashtlari [Dj.Max]
Writing application            : AVI-Mux GUI 1.17.8.3, Feb 16 201019:42:50
Video
ID                             : 0
Format                         : AVC
Format/Info                    : Advanced Video Codec
Format profile                 : Main@L3.1
Format settings                : CABAC / 1 Ref Frames
Format settings, CABAC         : Yes
Format settings, ReFrames      : 1 frame
Codec ID                       : H264
Duration                       : 1 h 29 min
Bit rate                       : 2 935 kb/s
Width                          : 1 280 pixels
Height                         : 720 pixels
Display aspect ratio           : 16:9
Frame rate mode                : Variable
Frame rate                     : 23.976 (24000/1001) FPS
Color space                    : YUV
Chroma subsampling             : 4:2:0
Bit depth                      : 8 bits
Scan type                      : Progressive
Bits/(Pixel*Frame)             : 0.133
Stream size                    : 1.83 GiB (92%)
Writing library                : x264 core 129
Encoding settings              : cabac=1 / ref=1 / deblock=1:0:0 / analyse=0x1:0x131 / me=dia / subme=2 / psy=1 / psy_rd=1.00:0.00 / mixed_ref=0 / me_range=16 / chroma_me=1 / trellis=0 / 8x8dct=0 / cqm=0 / deadzone=21,11 / fast_pskip=1 / chroma_qp_offset=0 / threads=8 / lookahead_threads=1 / sliced_threads=0 / nr=0 / decimate=1 / interlaced=0 / bluray_compat=0 / constrained_intra=0 / bframes=0 / weightp=2 / keyint=250 / keyint_min=25 / scenecut=40 / intra_refresh=0 / rc_lookahead=40 / rc=abr / mbtree=1 / bitrate=2935 / ratetol=1.0 / qcomp=0.60 / qpmin=10 / qpmax=51 / qpstep=4 / ip_ratio=1.41 / aq=1:1.00
Audio #1
ID                             : 1
Format                         : AAC
Format/Info                    : Advanced Audio Codec
Format profile                 : LC
Codec ID                       : FF-2
Duration                       : 1 h 29 min
Bit rate                       : 125 kb/s
Channel(s)                     : 2 channels
Channel positions              : Front: L R
Sampling rate                  : 48.0 kHz
Frame rate                     : 46.875 FPS (1024 SPF)
Compression mode               : Lossy
Stream size                    : 80.0 MiB (4%)
Alignment                      : Split accross interleaves
Interleave, duration           : 21  ms (0.51 video frame)
Interleave, preload duration   : 135  ms
Title                          : Ted Jons sarguzashtlari (O'zbek) [Dj.Max]
Audio #2
ID                             : 2
Format                         : AAC
Format/Info                    : Advanced Audio Codec
Format profile                 : LC
Codec ID                       : FF-2
Duration                       : 1 h 29 min
Bit rate                       : 125 kb/s
Channel(s)                     : 2 channels
Channel positions              : Front: L R
Sampling rate                  : 48.0 kHz
Frame rate                     : 46.875 FPS (1024 SPF)
Compression mode               : Lossy
Stream size                    : 80.0 MiB (4%)
Alignment                      : Split accross interleaves
Interleave, duration           : 21  ms (0.51 video frame)
Interleave, preload duration   : 131  ms
Title                          : Ted Jons sarguzashtlari (Rus) [Dj.Max]
- © Template by Dj.Max
Profil ShX

Spicger

Jins:
Yigit
Staj:
1 oy 19 kun
Xabarlar:
34

Qayerdan: Chinoz

Taqiq:

Tezlik bering DJ.MAX manda umuman ko'chirmavotti

Mavzu yaratish 04-Okt-2018 19:29 (2 soat 31 daqiqa o‘tgach)

Iqitibos

Profil ShX

Soft-Release

Jins:
Yigit
Staj:
8 oy 4 kun
Xabarlar:
727

Qayerdan: Kattakurgan

Taqiq:

Spicger, Teredo o'rnatilganmi sizda?

Mavzu yaratish 04-Okt-2018 19:50 (20 daqiqa o‘tgach)

Iqitibos

Profil ShX

Spicger

Jins:
Yigit
Staj:
1 oy 19 kun
Xabarlar:
34

Qayerdan: Chinoz

Taqiq:

Soft-Release, xa o'rnatilgan

Mavzu yaratish 04-Okt-2018 19:59 (9 daqiqa o‘tgach)

Iqitibos

Profil ShX

Soft-Release

Jins:
Yigit
Staj:
8 oy 4 kun
Xabarlar:
727

Qayerdan: Kattakurgan

Taqiq:

Spicger, Xa unday bo'lsa sabr qiling! Ulanib ketadi! Muallif to'liq tarqatib bo'lishini kuting!

Mavzu yaratish 04-Okt-2018 23:50 (3 soat o‘tgach)

Iqitibos

Profil ShX
Xabarlarni ko‘rsatish:    

Hozirgi vaqt: 19-Noy 03:20

Vaqtlar farqi: UTC + 5



Siz mavzu yaratishingiz mumkin emas
Siz xabarlarga javob qaytarishingiz mumkin emas
Siz o‘z xabarlaringizni tahrirlashingiz mumkin emas
Siz o‘z xabarlaringizni o‘chirishingiz mumkin emas
Siz so‘rovlarda ovoz berishingiz mumkin emas
Siz xabalarga fayllarni biriktirishingiz mumkin emas
Siz fayllarni ko‘chirishingiz mumkin emas