˂
˃
Tarqatmalar statistikasi
Yoʻq
 
     
 
 

Gr@nd ®

Jins:
Yigit
Staj:
1 yil 1 oy
Xabarlar:
158

Qayerdan: Jizzax Forish

Taqiq:

- -Terminator.Genisys / Терминатор: Генезис- -Davlat: AQSh
Janr: Fantastika, boеvik, trillеr
Chiqqan yili: 2015
Davomiyligi: 02:05:43-Перевод: Профессиональный (дублированный) O'zbek tilida
Rejissiyor: Alan Tеylor-Rollarda: Arnold Shvartsеnеggеr, Djеyson Klark, Emiliya Klark, Djay Kortni, Dj.K. Simmons, Dayo Okеniyi, Mett Smit, Kortni B. Vens, Li Byon Xon, Maykl Gledis, Sandrin Xolt, Ueyn Bastrup, Grеgori Alan Uilyams, Otto Sanchеs, Metti Fеrraro, Griff Fеrst, Yеn Etеridj, Afеmo Omilami, Tеri Uaybl, Kеrri Kеxill, Mark Adam-Описание: Когда Джон Коннор, лидер сопротивления, посылает сержанта Кайла Риза назад в 1984 год, чтобы защитить Сару Коннор и спасти будущее, неожиданный поворот событий создает разлом во времени. Сержант Риз оказывается в новой, незнакомой версии прошлого, где он встречает неожиданных союзников, в том числе Терминатора, новых опасных врагов, и новую миссию: изменить будущее…-Качество видео: BDRip
Формат видео: MKV-Video: MPEG4 Video (H264) 1920x804 23.976fps 2 612 Kbps
Audio: Dolby AC3 48000Hz 6ch Rus
Audio: Dolby AC3 48000Hz 6ch Eng
Audio: MP3 48000Hz 2ch 128kbps Uzb
-

MediaInfo

General
Unique ID : 184058879618391790289682941001241146553 (0x8A7873663C554D419C5D39B4962B34B9)
Format : Matroska
Format version : Version 4 / Version 2
File size : 3.14 GiB
Duration : 2h 5mn
Overall bit rate : 3 580 Kbps
Movie name : Xusan_Gr@nd
Encoded date : UTC 2017-10-04 17:58:04
Writing application : mkvmerge v6.8.0 ('Theme for Great Cities') 64bit built on Mar 2 2014 21:34:26
Writing library : libebml v1.3.0 + libmatroska v1.4.1
Video
ID : 1
Format : AVC
Format/Info : Advanced Video Codec
Format profile : High@L5.0
Format settings, CABAC : Yes
Format settings, ReFrames : 16 frames
Codec ID : V_MPEG4/ISO/AVC
Duration : 2h 5mn
Bit rate : 2 612 Kbps
Width : 1 920 pixels
Height : 804 pixels
Display aspect ratio : 2.40:1
Frame rate : 23.976 fps
Color space : YUV
Chroma subsampling : 4:2:0
Bit depth : 8 bits
Scan type : Progressive
Bits/(Pixel*Frame) : 0.071
Stream size : 2.29 GiB (73%)
Writing library : x264 core 148 r2597M e86f3a1
Encoding settings : cabac=1 / ref=16 / deblock=1:-2:-2 / analyse=0x3:0x113 / me=umh / subme=10 / psy=1 / psy_rd=1.00:0.00 / mixed_ref=1 / me_range=24 / chroma_me=1 / trellis=2 / 8x8dct=1 / cqm=0 / deadzone=21,11 / fast_pskip=1 / chroma_qp_offset=-2 / threads=5 / lookahead_threads=1 / sliced_threads=0 / nr=0 / decimate=1 / interlaced=0 / bluray_compat=0 / constrained_intra=0 / bframes=8 / b_pyramid=2 / b_adapt=2 / b_bias=0 / direct=3 / weightb=1 / open_gop=0 / weightp=2 / keyint=230 / keyint_min=23 / scenecut=40 / intra_refresh=0 / rc_lookahead=60 / rc=crf / mbtree=1 / crf=20.5 / qcomp=0.60 / qpmin=0 / qpmax=69 / qpstep=4 / ip_ratio=1.40 / aq=1:1.00
Language : English
Default : Yes
Forced : No
Audio #1
ID : 2
Format : AC-3
Format/Info : Audio Coding 3
Mode extension : CM (complete main)
Format settings, Endianness : Big
Codec ID : A_AC3
Duration : 2h 5mn
Bit rate mode : Constant
Bit rate : 384 Kbps
Channel(s) : 6 channels
Channel positions : Front: L C R, Side: L R, LFE
Sampling rate : 44.1 KHz
Bit depth : 16 bits
Compression mode : Lossy
Stream size : 345 MiB (11%)
Title : Дублированный (Чистый звук)
Language : Russian
Default : Yes
Forced : No
Audio #2
ID : 3
Format : AC-3
Format/Info : Audio Coding 3
Mode extension : CM (complete main)
Format settings, Endianness : Big
Codec ID : A_AC3
Duration : 2h 5mn
Bit rate mode : Constant
Bit rate : 384 Kbps
Channel(s) : 6 channels
Channel positions : Front: L C R, Side: L R, LFE
Sampling rate : 48.0 KHz
Bit depth : 16 bits
Compression mode : Lossy
Stream size : 345 MiB (11%)
Language : English
Default : No
Forced : No
Audio #3
ID : 4
Format : MPEG Audio
Format version : Version 1
Format profile : Layer 3
Mode : Joint stereo
Mode extension : MS Stereo
Codec ID : A_MPEG/L3
Codec ID/Hint : MP3
Duration : 2h 5mn
Bit rate mode : Constant
Bit rate : 128 Kbps
Channel(s) : 2 channels
Sampling rate : 44.1 KHz
Compression mode : Lossy
Stream size : 115 MiB (4%)
Title : Xusan_Gr@nd
Language : Uzbek
Default : No
Forced : No
Profil ShX
Xabarlarni ko‘rsatish:    

Hozirgi vaqt: 18-Noy 16:49

Vaqtlar farqi: UTC + 5



Siz mavzu yaratishingiz mumkin emas
Siz xabarlarga javob qaytarishingiz mumkin emas
Siz o‘z xabarlaringizni tahrirlashingiz mumkin emas
Siz o‘z xabarlaringizni o‘chirishingiz mumkin emas
Siz so‘rovlarda ovoz berishingiz mumkin emas
Siz xabalarga fayllarni biriktirishingiz mumkin emas
Siz fayllarni ko‘chirishingiz mumkin emas