˂
˃
Tarqatmalar statistikasi
Ko‘chiraman: [ 1 ]
Ko‘chirmoqdaman: [ 3 ]
Ko‘chirib bo‘ldim: [ 14 ]
 
     
 
 

bekastar ®

Jins:
Yigit
Staj:
6 oy 15 kun
Xabarlar:
26

Qayerdan: Samarqand

Taqiq:

--Tezlik 3 / Байкеры 3 / Dhoom 3- Chiqqan yili: 2013
Davlat: Hindiston
Janri: Jangari, triller, kriminal
Davomiyligi: 02:51:12
Tarjima: Dublyaj (Professional kadr ortidan) [Yoshlar ] O'zbek Tilida-Rejissiyor: Vijay Krishna Achariya-Sеnariy: Vijay Krishna Achariya, Aditya Chopra
Prodyusеr: Aditya Chopra, Rengarajan Jaiprakash, Ilana Rosseyn
Tasvirchi: Sudip Chatterjee
Bastakor: Pritam Chakraborty, Julius Paciem
Rassom: Snigdha Basu, Sumit Basu, Rajnish Hedao
Montaj ustasi: Ritesh Soni-Rollarda: Amir xon, Abhishek Bachchan, Katrina Kaif, Uday Chopra, Tabret Bekxem, Jackie Shroff, Endryu Biknell, Siddharth Nigam, Charlz Rasmussen, Gavin marshal-Tavsif: Film 1990 yilda Chikagodan boshlanib, Sakhir bolaligida va otasining tsirkida o'sgan. Ammo kompaniya qarzga botdi va bankirlar qat'iy qaror qabul qilishdi - Soxirning otasi o'zini ishdan bo'shatdi. Shundan buyon Sakhir otasining vafotidan qutulishni orzu qilmoqda va buning uchun bankni o'g'irlashni rejalashtirmoqda.- -Film byutjeti: $25 000 000
Ashqda to`plagan mablag`i: $8 031 955
Dunyo bo`ylab to`plagan mablag`i: + + $80 000 000 = $88 031 955
Rossiya bo`yicha to`plagan mablag`i: $17 591-Sifat: HDRip
Format: MKV
Video: | Xvid 720x304 / 23.976fps / 1126 kb/s
Audio #1: MPEG -1 layer 3 44100Hz stereo 128 Kbps O'zbek tilida (Yoshlar)
Audio #2: Dolby AC3 48000Hz 6chl 128 Kbps / Russ Tilida (ICG)

Audio #3: Dolby AC3 48000Hz stereo 112Kbps / (Hindcha haqiqiy ovoz)

Media Info

Общее
Уникальный идентификатор                 : 175605312973543592300137721603136746841 (0x841C5A62767DED299EE528C2C30CF559)
Полное имя                               : F:\KINO\Dhoom 3.2013.HDRip.Rus.Original.ICG.GeneralFilm\Tezlik 3.2013.HDRip.Uzb.Rus.Original.mkv
Формат                                   : Matroska
Версия формата                           : Version 2
Размер файла                             : 3,05 Гбайт
Продолжительность                        : 2 ч. 51 м.
Общий поток                              : 2552 Кбит/сек
Дата кодирования                         : UTC 2018-10-27 19:37:03
Программа кодирования                    : mkvmerge v4.0.0 ('The Stars were mine') сборка от Jun  6 2010 16:18:42
Библиотека кодирования                   : libebml v1.0.0 + libmatroska v1.0.0
Видео
Идентификатор                            : 2
Формат                                   : MPEG-4 Visual
Профиль формата                          : Advanced Simple@L5
Параметр BVOP формата                    : Да
Параметр QPel формата                    : Нет
Параметр GMC формата                     : Без точки перехода
Параметр матрицы формата                 : Default (MPEG)
Идентификатор кодека                     : V_MS/VFW/FOURCC / XVID
Идентификатор кодека/Подсказка           : XviD
Продолжительность                        : 2 ч. 51 м.
Битрейт                                  : 1701 Кбит/сек
Ширина                                   : 720 пикселей
Высота                                   : 304 пикселя
Соотношение сторон                       : 2,35:1
Режим частоты кадров                     : Постоянный
Частота кадров                           : 24,000 кадра/сек
Цветовое пространство                    : YUV
Субдискретизация насыщенности            : 4:2:0
Битовая глубина                          : 8 бит
Тип развёртки                            : Прогрессивная
Метод сжатия                             : С потерями
Бит/(Пиксели*Кадры)                      : 0.324
Размер потока                            : 2,03 Гбайт (67%)
Библиотека кодирования                   : XviD 64
Default                                  : Да
Forced                                   : Нет
Аудио #1
Идентификатор                            : 1
Формат                                   : MPEG Audio
Версия формата                           : Version 1
Профиль формата                          : Layer 3
Режим                                    : Joint stereo
Расширение режима                        : MS Stereo
Идентификатор кодека                     : A_MPEG/L3
Идентификатор кодека/Подсказка           : MP3
Продолжительность                        : 2 ч. 51 м.
Вид битрейта                             : Постоянный
Битрейт                                  : 128 Кбит/сек
Каналы                                   : 2 канала
Частота                                  : 44,1 КГц
Метод сжатия                             : С потерями
Размер потока                            : 157 Мбайт (5%)
Библиотека кодирования                   : LAME3.98.2
Язык                                     : Uzbek
Default                                  : Да
Forced                                   : Нет
Аудио #2
Идентификатор                            : 3
Формат                                   : AC-3
Формат/Информация                        : Audio Coding 3
Расширение режима                        : CM (complete main)
Параметр Endianness формата              : Big
Идентификатор кодека                     : A_AC3
Продолжительность                        : 2 ч. 51 м.
Вид битрейта                             : Постоянный
Битрейт                                  : 448 Кбит/сек
Каналы                                   : 6 каналов
Расположение каналов                     : Front: L C R, Side: L R, LFE
Частота                                  : 48,0 КГц
Частота кадров                           : 31,250 кадров/сек (1536 spf)
Битовая глубина                          : 16 бит
Метод сжатия                             : С потерями
Размер потока                            : 549 Мбайт (18%)
Default                                  : Нет
Forced                                   : Нет
Аудио #3
Идентификатор                            : 4
Формат                                   : AC-3
Формат/Информация                        : Audio Coding 3
Расширение режима                        : CM (complete main)
Параметр Endianness формата              : Big
Идентификатор кодека                     : A_AC3
Продолжительность                        : 2 ч. 51 м.
Вид битрейта                             : Постоянный
Битрейт                                  : 224 Кбит/сек
Каналы                                   : 2 канала
Расположение каналов                     : Front: L R
Частота                                  : 48,0 КГц
Частота кадров                           : 31,250 кадров/сек (1536 spf)
Битовая глубина                          : 16 бит
Метод сжатия                             : С потерями
Размер потока                            : 274 Мбайт (9%)
Default                                  : Нет
Forced                                   : Нет
-SKRINSHOTLAR--
Profil ShX

bekbola

Jins:
Ko‘rsatilmagan
Staj:
1 oy 16 kun
Xabarlar:
10
Taqiq:

Katta rahmat

Mavzu yaratish 29-Okt-2018 21:12 (20 soat o‘tgach)

Iqitibos

Profil ShX

alibobo2450

Jins:
Yigit
Staj:
6 oy 14 kun
Xabarlar:
10

Qayerdan: Andijon

Taqiq:

kochirib bomayaptyu nma qlasizlar bunaqada joylab kochra olmasek nma keragi bor!!!

Mavzu yaratish 31-Okt-2018 22:06 (2 kun o‘tgach)

Iqitibos

Profil ShX
Xabarlarni ko‘rsatish:    

Hozirgi vaqt: 11-Dek 02:43

Vaqtlar farqi: UTC + 5



Siz mavzu yaratishingiz mumkin emas
Siz xabarlarga javob qaytarishingiz mumkin emas
Siz o‘z xabarlaringizni tahrirlashingiz mumkin emas
Siz o‘z xabarlaringizni o‘chirishingiz mumkin emas
Siz so‘rovlarda ovoz berishingiz mumkin emas
Siz xabalarga fayllarni biriktirishingiz mumkin emas
Siz fayllarni ko‘chirishingiz mumkin emas