˂
˃
Tarqatmalar statistikasi
Ko‘chirmoqdaman: [ 6 ]
Ko‘chirib bo‘ldim: [ 18 ]
 
     
 
 

N.U.R.I.K.B.E.K ®

Jins:
Yigit
Staj:
1 yil 1 oy
Xabarlar:
349

Qayerdan: Jizzax. Paxtakor

Taqiq:

-Tezlik Asiri | Малыш на драйве | Baby Driver--
Chiqqan yili: 2017
Davlat: AQSH
Janr: Jangari, Triller, Kriminal, Musiqa.
Davomiyligi: 01:52:39
Tarjima: Professional (dublyaj qilingan)
Tarjima #1: Professional Kinoteatr O'zbek Tilida
Tarjima #2: Professional Rus Tilida
Tarjima #3: Professional Ing Tilida--Rejissyor: Edgar Rayt.--Rollarda: Ensel Elgort, Kevin Speyson, Lili Jeyms, Eysa Gonsales, Jon Xemm, Jeymi Foks, Jon Berntal, Fli, Lenni Jun, Mika Xovard, Morgan Braun, Mors Digge.--Tavsif: Mittivoy laqabli yosh yigit zamonaviy musiqani yaxshi ko'radi, tezkor haydash va adrenalin uning qonida bor. Uning butun hayoti doimo haydash va otishmalardir, chunki u haydovchi bo'lib, jinoyatchilarni voqea joyidan qochishiga yordam beradi. Bir kuni u chindan ham sevib qoladi va o'yinni tark etishga qaror qiladi, lekin avvaliga u o'z hayotida so'nggi bo'lishi mumkin bo'lgan boshqa vazifani bajarishi kerak.--Videoning sifati: BDRip 1080p
Video format: MKV--Video: HEVC; 1920x808 23,976 fps 10bit 2 579 kb/s
Audio: MP3 48000Hz stereo 128kbps O'zbek Tili
Audio 2: AAC 48000Hz 6ch 192kbps Rus Tili
Audio 3: AAC 48000Hz 6ch 202kbps Ing Tili--

Media Info

General
Format : Matroska
Format version : Version 4 / Version 2
File size : 2.44 GiB
Duration : 1 h 52 min
Overall bit rate : 3 103 kb/s
Movie name : Малыш на драйве - 2017
Encoded date : UTC 2018-11-18 23:33:08
Writing application : mkvmerge v15.0.0 ('Duel with the Devil') 64-bit
Writing library : libebml v1.3.5 + libmatroska v1.4.5
Attachments : poster.jpg
Video
ID : 1
Format : HEVC
Format/Info : High Efficiency Video Coding
Format profile : Main 10@L4@Main
Codec ID : V_MPEGH/ISO/HEVC
Duration : 1 h 52 min
Bit rate : 2 579 kb/s
Width : 1 920 pixels
Height : 808 pixels
Display aspect ratio : 2.40:1
Frame rate mode : Constant
Frame rate : 23.976 (24000/1001) FPS
Color space : YUV
Chroma subsampling : 4:2:0
Bit depth : 10 bits
Bits/(Pixel*Frame) : 0.069
Stream size : 2.03 GiB (83%)
Default : Yes
Forced : No
Audio #1
ID : 2
Format : MPEG Audio
Format version : Version 1
Format profile : Layer 3
Mode : Joint stereo
Mode extension : MS Stereo
Codec ID : A_MPEG/L3
Codec ID/Hint : MP3
Duration : 1 h 52 min
Bit rate mode : Constant
Bit rate : 128 kb/s
Channel(s) : 2 channels
Sampling rate : 48.0 kHz
Frame rate : 41.667 FPS (1152 SPF)
Compression mode : Lossy
Stream size : 103 MiB (4%)
Title : O'zbek Tili
Writing library : LAME3.99.5
Language : Uzbek
Default : Yes
Forced : No
Audio #2
ID : 3
Format : AAC
Format/Info : Advanced Audio Codec
Format profile : HE-AAC / LC
Codec ID : A_AAC
Duration : 1 h 52 min
Bit rate : 192 kb/s
Channel(s) : 6 channels
Channel positions : Front: L C R, Side: L R, LFE
Sampling rate : 48.0 kHz / 24.0 kHz
Frame rate : 23.438 FPS (1024 SPF)
Compression mode : Lossy
Delay relative to video : 40 ms
Stream size : 155 MiB (6%)
Title : Rus Tili
Language : Russian
Default : No
Forced : No
Audio #3
ID : 4
Format : AAC
Format/Info : Advanced Audio Codec
Format profile : HE-AAC / LC
Codec ID : A_AAC
Duration : 1 h 52 min
Bit rate : 202 kb/s
Channel(s) : 6 channels
Channel positions : Front: L C R, Side: L R, LFE
Sampling rate : 48.0 kHz / 24.0 kHz
Frame rate : 23.438 FPS (1024 SPF)
Compression mode : Lossy
Delay relative to video : 23 ms
Stream size : 162 MiB (6%)
Title : Ing Tili
Language : English
Default : No
Forced : No
LAVHALAR


So‘ngi marta tahrirlandi: N.U.R.I.K.B.E.K (2018-11-21 17:45), Jami tahrirlangan 6 marta
Profil ShX

N.U.R.I.K.B.E.K ®

Jins:
Yigit
Staj:
1 yil 1 oy
Xabarlar:
349

Qayerdan: Jizzax. Paxtakor

Taqiq:

au

Mavzu yaratish 19-Noy-2018 04:08 (4 daqiqa o‘tgach)

Iqitibos

Profil ShX

AxeL

Jins:
Yigit
Staj:
9 oy
Xabarlar:
615

Qayerdan: Gronland, Norway

Taqiq:

reliz ajoyib, filmni qaysi progda montajlab qo'yyabsiz? nega texnik ma'lumotlarni to'liq ko'rsatmagan? masalan bit rate yozilmagan texnik ma'lumotlarda

Mavzu yaratish 19-Noy-2018 08:01 (3 soat o‘tgach)

Iqitibos

Profil ShX

vuelta

Jins:
Yigit
Staj:
1 yil 4 oy
Xabarlar:
300
Taqiq:

reliz zor chiqgan posterdagi rasmni turtburchak qilib qanday tugirlasa buladi

Mavzu yaratish 19-Noy-2018 09:49 (1 soat 48 daqiqa o‘tgach)

Iqitibos

Profil ShX

Soft-Release

Jins:
Yigit
Staj:
9 oy 3 kun
Xabarlar:
738

Qayerdan: Kattakurgan

Taqiq:

AxeL, Do'stim Savol Nega T Vaqtincha maqomini olgan?

Mavzu yaratish 19-Noy-2018 11:30 (1 soat 41 daqiqa o‘tgach)

Iqitibos

Profil ShX

AxeL

Jins:
Yigit
Staj:
9 oy
Xabarlar:
615

Qayerdan: Gronland, Norway

Taqiq:

Soft-Release, Video va audio fayllarning bit ratesi qolib ketgan shunga vaqtinchalik maqomini berdim

Mavzu yaratish 19-Noy-2018 18:20 (6 soat o‘tgach)

Iqitibos

Profil ShX

atadjanov11

Jins:
Ko‘rsatilmagan
Staj:
1 yil
Xabarlar:
2
Taqiq:

skorost beradigan bomi

Mavzu yaratish 19-Noy-2018 19:24 (1 soat 3 daqiqa o‘tgach)

Iqitibos

Profil ShX

N.U.R.I.K.B.E.K ®

Jins:
Yigit
Staj:
1 yil 1 oy
Xabarlar:
349

Qayerdan: Jizzax. Paxtakor

Taqiq:

atadjanov11, skors bor

Mavzu yaratish 19-Noy-2018 20:25 (1 soat o‘tgach)

Iqitibos

Profil ShX

N.U.R.I.K.B.E.K ®

Jins:
Yigit
Staj:
1 yil 1 oy
Xabarlar:
349

Qayerdan: Jizzax. Paxtakor

Taqiq:

AxeL, Movavida qilaman borini yozganman

Mavzu yaratish 19-Noy-2018 20:25 (41 soniya o‘tgach)

Iqitibos

Profil ShX

NeoLit

Jins:
Ko‘rsatilmagan
Staj:
8 oy 13 kun
Xabarlar:
3
Taqiq:

6801Movavida qilaman borini yozganman
To'liroq malumot yozing

Mavzu yaratish 20-Noy-2018 13:47 (17 soat o‘tgach)

Iqitibos

Profil ShX

N.U.R.I.K.B.E.K ®

Jins:
Yigit
Staj:
1 yil 1 oy
Xabarlar:
349

Qayerdan: Jizzax. Paxtakor

Taqiq:

NeoLit, qanaqa malumot kerak

Mavzu yaratish 20-Noy-2018 14:06 (19 daqiqa o‘tgach)

Iqitibos

Profil ShX

iJalol_Production

Jins:
Yigit
Staj:
8 oy 22 kun
Xabarlar:
70
Taqiq:

Uploaderlar kelilareeeeeeeeeeeeeeeeeee

Mavzu yaratish 20-Noy-2018 21:05 (6 soat o‘tgach)

Iqitibos

Profil ShX

N.U.R.I.K.B.E.K ®

Jins:
Yigit
Staj:
1 yil 1 oy
Xabarlar:
349

Qayerdan: Jizzax. Paxtakor

Taqiq:

uziraslar ashnalar svet uynayapti bariga yomg'ir aybdor

Mavzu yaratish 20-Noy-2018 21:29 (24 daqiqa o‘tgach)

Iqitibos

Profil ShX

Downloader

Jins:
Ko‘rsatilmagan
Staj:
1 oy 7 kun
Xabarlar:
8
Taqiq:

N.U.R.I.K.B.E.K, Tarjima #3: Professional (litsenziya) Eng Tilida?... Menimcha xato yozilgan emasmi?... Ingliz tilida deyilganda Engliz tili deyilmaydi-yu... Original ovoz professional va litsenziya bo'lmaydi...


So‘ngi marta tahrirlandi: Downloader (2018-11-20 22:09), Jami tahrirlangan 1 marta

Mavzu yaratish 20-Noy-2018 22:06 (36 daqiqa o‘tgach)

Iqitibos

Profil ShX

Downloader

Jins:
Ko‘rsatilmagan
Staj:
1 oy 7 kun
Xabarlar:
8
Taqiq:

N.U.R.I.K.B.E.K, AxeL sizga menimcha, Audio 2: AAC 48000Hz 6ch Rus Tili / Audio 3: AAC 48000Hz 6ch Eng Tili - mana bularni bit raytini yozing deyapti...

Mavzu yaratish 20-Noy-2018 22:08 (2 daqiqa o‘tgach)

Iqitibos

Profil ShX
Xabarlarni ko‘rsatish:    

Hozirgi vaqt: 18-Dek 01:21

Vaqtlar farqi: UTC + 5



Siz mavzu yaratishingiz mumkin emas
Siz xabarlarga javob qaytarishingiz mumkin emas
Siz o‘z xabarlaringizni tahrirlashingiz mumkin emas
Siz o‘z xabarlaringizni o‘chirishingiz mumkin emas
Siz so‘rovlarda ovoz berishingiz mumkin emas
Siz xabalarga fayllarni biriktirishingiz mumkin emas
Siz fayllarni ko‘chirishingiz mumkin emas