˂
˃
Tarqatmalar statistikasi
Ko‘chirmoqdaman: [ 5 ]
Ko‘chirib bo‘ldim: [ 24 ]
 
     
 
 

yunusovjamshid ®

Jins:
Yigit
Staj:
1 oy 15 kun
Xabarlar:
30

Qayerdan: Toshkent

Taqiq:

--Tezlik zavqi | Жажда скорости | Need for Speed-- Chiqqan yili: 2014
Davlat:
Janr: jangari, triller, drama, kriminal
Davomiyligi: 02:10:43
Tarjima: Professional (dublyaj qilingan)
Subtitrlar: Ingliz tilida--Rejissyor: Skot Vo | Scott Waugh--Rollarda: Dakota Jonson, Dominik Koper, Maykl Keaton, Imogen Puts, Rami Malek, Nik Jinland, Scott Meskadi, Ramon Rodriguez, Sir Mayor, Aaron Pol--Tavsif: Toby Marshall, dahosiz avtoulovning hikoyasi, faqatgina er osti poygalarida ishtirok etmoqda. Oilaviy ustaxonani saqlab qolish uchun, Toby boy va mag'rur sobiq NASCAR raisi Dino Brewster bilan hamkorlik qilishga majbur. Tobyaning ishlari nihoyat tepalikka chiqqach, Dino sherigini o'rtaga qo'yadi, Toby esa u qilmagan jinoyati uchun ayblanadi. Ikki yil o'tgach, Toby qasos g'oyasi bilan qamoqdan ozod qilindi. Maqsadiga erishish uchun u imkonsiz narsani amalga oshirishi kerak, va hatto dunyodagi eng qaltis superkarlar dunyosida ham eng ko'zga tashlanmaydigan racer birinchi marta tugashi mumkinligini isbotlashi kerak.-- Videoning sifati: BrRip 1080p
Video format:
Video: 1920x804, 23.976 fp/s, 1 999 kb/s
Audio 1: AAC, 44100Hz, stereo, 96.0 kbps |
Audio 2: AC3, 48000Hz, 6 ch, 448 kbps |
Audio 3: AAC, 48000Hz, stereo, 93.3 kbps |

Media Info

General
Unique ID : 202516734115360918147414847064480866659 (0x985B4DE32576E1A7A722D3DC9AAAE163)
Complete name : D:\проче\кино\Жажда скорости (Need For Speed) 2014.BluRay.1080p.Uzb.Rus.Eng.mkv
Format : Matroska
Format version : Version 4 / Version 2
File size : 2.41 GiB
Duration : 2 h 10 min
Overall bit rate : 2 638 kb/s
Movie name : Need for Speed - Жажда скорости 2014 BDRip 720p Release by Sercor
Encoded date : UTC 2018-11-11 13:57:52
Writing application : mkvmerge v11.0.0 ('Alive') 64bit
Writing library : libebml v1.3.4 + libmatroska v1.4.5
Cover : Yes
Attachments : cover.png
Video
ID : 1
Format : AVC
Format/Info : Advanced Video Codec
Format profile : High@L4.1
Format settings, CABAC : Yes
Format settings, ReFrames : 5 frames
Codec ID : V_MPEG4/ISO/AVC
Duration : 2 h 10 min
Bit rate : 1 999 kb/s
Width : 1 920 pixels
Height : 804 pixels
Display aspect ratio : 2.40:1
Frame rate mode : Constant
Frame rate : 23.976 (24000/1001) FPS
Color space : YUV
Chroma subsampling : 4:2:0
Bit depth : 8 bits
Scan type : Progressive
Bits/(Pixel*Frame) : 0.054
Stream size : 1.82 GiB (76%)
Writing library : x264 core 142 r2431 ac76440
Encoding settings : cabac=1 / ref=5 / deblock=1:-1:-1 / analyse=0x3:0x113 / me=umh / subme=9 / psy=1 / psy_rd=1.00:0.15 / mixed_ref=1 / me_range=24 / chroma_me=1 / trellis=2 / 8x8dct=1 / cqm=0 / deadzone=21,11 / fast_pskip=0 / chroma_qp_offset=-3 / threads=12 / lookahead_threads=1 / sliced_threads=0 / nr=0 / decimate=1 / interlaced=0 / bluray_compat=0 / constrained_intra=0 / bframes=3 / b_pyramid=2 / b_adapt=2 / b_bias=0 / direct=3 / weightb=1 / open_gop=0 / weightp=2 / keyint=240 / keyint_min=23 / scenecut=40 / intra_refresh=0 / rc_lookahead=60 / rc=2pass / mbtree=1 / bitrate=1999 / ratetol=1.0 / qcomp=0.60 / qpmin=0 / qpmax=69 / qpstep=4 / cplxblur=20.0 / qblur=0.5 / vbv_maxrate=31250 / vbv_bufsize=31250 / nal_hrd=none / filler=0 / ip_ratio=1.40 / aq=1:1.00
Default : Yes
Forced : No
Color range : Limited
Color primaries : BT.709
Matrix coefficients : BT.709
Audio #1
ID : 2
Format : AAC
Format/Info : Advanced Audio Codec
Format profile : LC
Codec ID : A_AAC
Duration : 2 h 10 min
Bit rate : 96.0 kb/s
Channel(s) : 2 channels
Channel positions : Front: L R
Sampling rate : 44.1 kHz
Frame rate : 43.066 FPS (1024 spf)
Compression mode : Lossy
Delay relative to video : -83 ms
Stream size : 89.6 MiB (4%)
Title : dublyaj
Language : Uzbek
Default : Yes
Forced : No
Audio #2
ID : 3
Format : AC-3
Format/Info : Audio Coding 3
Format settings, Endianness : Big
Codec ID : A_AC3
Duration : 2 h 10 min
Bit rate mode : Constant
Bit rate : 448 kb/s
Channel(s) : 6 channels
Channel positions : Front: L C R, Side: L R, LFE
Sampling rate : 48.0 kHz
Frame rate : 31.250 FPS (1536 spf)
Bit depth : 16 bits
Compression mode : Lossy
Delay relative to video : -83 ms
Stream size : 419 MiB (17%)
Title : Dub | DD 5.1 @ 384 kbps
Language : Russian
Service kind : Complete Main
Default : No
Forced : No
Audio #3
ID : 4
Format : AAC
Format/Info : Advanced Audio Codec
Format profile : LC
Codec ID : A_AAC
Duration : 2 h 10 min
Bit rate : 93.3 kb/s
Channel(s) : 2 channels
Channel positions : Front: L R
Sampling rate : 48.0 kHz
Frame rate : 46.875 FPS (1024 spf)
Compression mode : Lossy
Delay relative to video : -83 ms
Stream size : 87.2 MiB (4%)
Default : No
Forced : No
Text
ID : 5
Format : UTF-8
Codec ID : S_TEXT/UTF8
Codec ID/Info : UTF-8 Plain Text
Duration : 2 h 1 min
Bit rate : 41 b/s
Count of elements : 1215
Stream size : 36.9 KiB (0%)
Language : English
Default : No
Forced : No
Menu
00:00:00.000 : en:00:00:00.000
00:03:54.734 : en:00:03:54.734
00:07:49.761 : en:00:07:49.761
00:14:28.034 : en:00:14:28.034
00:20:43.534 : en:00:20:43.534
00:26:18.160 : en:00:26:18.160
00:28:45.974 : en:00:28:45.974
00:37:46.473 : en:00:37:46.473
00:42:07.608 : en:00:42:07.608
00:50:33.614 : en:00:50:33.614
00:56:00.482 : en:00:56:00.482
01:05:09.864 : en:01:05:09.864
01:12:09.325 : en:01:12:09.325
01:18:21.030 : en:01:18:21.030
01:25:07.144 : en:01:25:07.144
01:32:55.653 : en:01:32:55.653
01:36:38.084 : en:01:36:38.084
01:39:49.442 : en:01:39:49.442
01:49:47.873 : en:01:49:47.873
01:55:41.685 : en:01:55:41.685
02:02:22.752 : en:02:02:22.752


So‘ngi marta tahrirlandi: yunusovjamshid (2018-11-17 13:51), Jami tahrirlangan 3 marta
Profil ShX

ZAFAR-studio

Jins:
Yigit
Staj:
5 oy 20 kun
Xabarlar:
27

Qayerdan: Хоразм вилояти, Урганч шаҳри, "12-сонли Маъшал" маҳалласидан

Taqiq:

yunusovjamshid, овози яхши тушганми ?

Mavzu yaratish 12-Noy-2018 18:56 (44 daqiqa o‘tgach)

Iqitibos

Profil ShX

yunusovjamshid ®

Jins:
Yigit
Staj:
1 oy 15 kun
Xabarlar:
30

Qayerdan: Toshkent

Taqiq:

6744yunusovjamshid, овози яхши тушганми ?
хм

Mavzu yaratish 12-Noy-2018 20:35 (1 soat 38 daqiqa o‘tgach)

Iqitibos

Profil ShX

vuelta

Jins:
Yigit
Staj:
1 yil 4 oy
Xabarlar:
300
Taqiq:

Zor kino bu

Mavzu yaratish 12-Noy-2018 21:03 (28 daqiqa o‘tgach)

Iqitibos

Profil ShX

Downloader

Jins:
Ko‘rsatilmagan
Staj:
1 oy 7 kun
Xabarlar:
8
Taqiq:

yunusovjamshid, Ovoz ulashga salgina kamchiliklar bor. Ayrim joylarida o'zbekcha ovoz oldinroq bo'lib, keyin og'zi qimirlaydigan bo'lib qolgan...

Mavzu yaratish 20-Noy-2018 22:20 (8 kun o‘tgach)

Iqitibos

Profil ShX
Xabarlarni ko‘rsatish:    

Hozirgi vaqt: 17-Dek 10:13

Vaqtlar farqi: UTC + 5



Siz mavzu yaratishingiz mumkin emas
Siz xabarlarga javob qaytarishingiz mumkin emas
Siz o‘z xabarlaringizni tahrirlashingiz mumkin emas
Siz o‘z xabarlaringizni o‘chirishingiz mumkin emas
Siz so‘rovlarda ovoz berishingiz mumkin emas
Siz xabalarga fayllarni biriktirishingiz mumkin emas
Siz fayllarni ko‘chirishingiz mumkin emas