Tarqatmalar statistikasi
Yoʻq
 
     
 
 

Abdulloh ®

Jins:
Ko‘rsatilmagan
Staj:
11 oy 19 kun
Xabarlar:
41
Taqiq:

Tig' ustida yuguruvchi 2049 | Бегущий по лезвию / Blade Runner 2049
Chiqqan yili: 2017
Davlat: Amerika Qo'shma Shtatlari, Buyuk Britaniya, Vengriya, Kanada
Janr: fantastika, triller, drama, detektiv
Davomiyligi: 02:43:27
-Tarjima: Professional (Ko'p ovozli kadr ortidan)
Tarjima haqida qo'shimcha ma'lumot: MY5 (Favvora studiyasi) da tarjima qilingan. ( Kanalda uzilgan joylari ingliz tilida)
Subtitrlar: inglizcha
Original ovoz yo'lagi: Inglizcha
-Rejissiyor: Denis Villeneuve-Rollarda: Rayan Gosling, Deyv Batista, Robin Rayt, Mark Arnold, Wilma Sechi, Ana de Armas, Wood Harris, Devid Dastmalchyan, Tomas Lemarcus, Silvia Kooklar-

Tavsif:
Yaqin kelajakda dunyo eng og'ir ishlarni bajarish uchun yaratilgan odamlar va replikantlar tomonidan joylashtirilgan. Politsiya xodimi Kay ishi kuchayib borayotgan sharoitda replikantlarni nazorat ostida ushlab turishdir ... U tasodifan butun insoniyatga tahdid soluvchi maxfiy axborot egasiga aylanguncha. Yechimning kalitini topmoqchi bo'lgan Kay, ko'p yillardan buyon izsiz yo'qolib ketgan Los Anjeles politsiyasining maxsus bo'linmasining sobiq ofitseri Rik Dekarkni topishga qaror qiladi.- Sifat : BDRip 1080p HEVC 10 bit
Format: MKV

Video: 1920х796, 23.976 fps, 1 454 Кбит/с
Audio №1:: Dolby AC3 48000Hz 6ch 384kbps [rus]
Audio №2:: AAC 48000Hz 6ch [eng]
Audio №3:: AAC 44100Hz stereo [uzb]

MediaInfo

General
Unique ID : 174599619690244017237910557300090924027 (0x835AA9E0A435B7E3BFB2FED587C2EBFB)
Complete name : D:\Internet\Kino UZ tracker\Blade.Runner.2049.2017.1080p.WEB-DL.6CH.x265.HEVC (1) (1).mkv
Format : Matroska
Format version : Version 4 / Version 2
File size : 2.41 GiB
Duration : 2 h 43 min
Overall bit rate : 2 113 kb/s
Movie name : PSArips.com | Blade.Runner.2049.2017.1080p.WEB-DL.6CH.x265.HEVC-PSA
Encoded date : UTC 2018-02-02 17:19:08
Writing application : mkvmerge v7.5.0 ('Glass Culture') 64bit built on Jan 4 2015 16:48:44
Writing library : libebml v1.3.1 + libmatroska v1.4.2
Video
ID : 1
Format : HEVC
Format/Info : High Efficiency Video Coding
Format profile : Main@L4@Main
Codec ID : V_MPEGH/ISO/HEVC
Duration : 2 h 43 min
Bit rate : 1 454 kb/s
Width : 1 920 pixels
Height : 796 pixels
Display aspect ratio : 2.40:1
Frame rate mode : Constant
Frame rate : 23.976 (24000/1001) FPS
Color space : YUV
Chroma subsampling : 4:2:0
Bit depth : 8 bits
Bits/(Pixel*Frame) : 0.040
Stream size : 1.66 GiB (69%)
Default : Yes
Forced : No
Audio #1
ID : 2
Format : AC-3
Format/Info : Audio Coding 3
Codec ID : A_AC3
Duration : 2 h 43 min
Bit rate mode : Constant
Bit rate : 384 kb/s
Channel(s) : 6 channels
Channel positions : Front: L C R, Side: L R, LFE
Sampling rate : 48.0 kHz
Frame rate : 31.250 FPS (1536 SPF)
Bit depth : 16 bits
Compression mode : Lossy
Stream size : 449 MiB (18%)
Service kind : Complete Main
Default : No
Forced : No
Audio #2
ID : 3
Format : AAC
Format/Info : Advanced Audio Codec
Format profile : HE-AAC / LC
Format settings : Explicit
Codec ID : A_AAC-2
Duration : 2 h 43 min
Bit rate : 209 kb/s
Channel(s) : 6 channels
Channel(s)_Original : 18 channels
Channel positions : Front: 14, Side: C, Back: C, LFE= 2
Sampling rate : 48.0 kHz / 24.0 kHz
Frame rate : 23.438 FPS (1024 SPF)
Compression mode : Lossy
Delay relative to video : 23 ms
Stream size : 244 MiB (10%)
Default : No
Forced : No
Audio #3
ID : 5
Format : AAC
Format/Info : Advanced Audio Codec
Format profile : LC
Codec ID : A_AAC-2
Duration : 2 h 43 min
Bit rate : 64.0 kb/s
Channel(s) : 2 channels
Channel positions : Front: L R
Sampling rate : 44.1 kHz
Frame rate : 43.066 FPS (1024 SPF)
Compression mode : Lossy
Stream size : 74.8 MiB (3%)
Title : O'zbek tilida @ A - Studio
Language : Uzbek
Default : Yes
Forced : Yes
Text
ID : 4
Format : UTF-8
Codec ID : S_TEXT/UTF8
Codec ID/Info : UTF-8 Plain Text
Duration : 2 h 27 min
Bit rate : 24 b/s
Count of elements : 975
Stream size : 26.7 KiB (0%)
Language : English
Default : Yes
Forced : No

Lavhalar

Profil ShX
Xabarlarni ko‘rsatish:    

Hozirgi vaqt: 19-Sen 05:55

Vaqtlar farqi: UTC + 5



Siz mavzu yaratishingiz mumkin emas
Siz xabarlarga javob qaytarishingiz mumkin emas
Siz o‘z xabarlaringizni tahrirlashingiz mumkin emas
Siz o‘z xabarlaringizni o‘chirishingiz mumkin emas
Siz so‘rovlarda ovoz berishingiz mumkin emas
Siz xabalarga fayllarni biriktirishingiz mumkin emas
Siz fayllarni ko‘chirishingiz mumkin emas