Tarqatmalar statistikasi
Ko‘chiraman: [ 1 ]
 
     
 
 

Gr@nd ®

Jins:
Yigit
Staj:
9 oy 27 kun
Xabarlar:
150

Qayerdan: Jizzax Forish

Taqiq:

-To'lqinlarni Bo'ysindirib | На гребне волны- -Davlat: AQSH, Gеrmaniya, Kitay
Janr: Jangari, trillеr, kriminal, sport
Chiqqan yili: 2015
Davomiyligi: 01:53:51-Tarjima: Professional (dublyaj qilingan) O'zbek tilida-Rejissiyor: Ericson Core-Rollarda: Lyuk Brеysi, Edgar Ramirеs, Rey Uinston, Tеrеza Palmеr, Matias Varеla, Klеmеns Shik, Tobias Zantеlman, Maks Tiriot, Dеlroy Lindo, Nikolay Kinski, Djuda Lyuis, Glaynis Barbеr-Описание: Johnny - yashirin ishda ixtisoslashgan yosh FBI agenti. U tez-tez eng qiyin vaziyatlardan chiqib, har doim ishini oxirigacha tugatdi. Keyingi vazifasi o'g'rilarning to'dasiga kirib borishdir. Biroq, bu odamlar odatdagi qaroqchilar emas: ularning asosiy farqlari ekstremal sportlarga bo'lgan ehtirosdir. Ularning har qanday yangi talonchiliklari bilan foydalanadigan mahoratlari va ularning jamoasining bir qismi bo'lish juda qiyin. jinoyatchilarni bir to'da kirib to'xtatish uchun, Jonni u ular bilan bir xil ekanligini isbotlash kerak bo'ladi, va bu uchun u o'z hayotini xavf ostiga qoldirishga rozi bo'ladi ...-Videoning sifati: HDRip
Формат видео: MKV-Video: MPEG4 Video (H264) 1024x428 (511:214) 23.976fps 2 100 Kbps
Audio: Dolby AC3 48000Hz / 6ch / 384 kbps Rus
Audio: Dolby AC3 48000Hz / 6ch / 448 kbps Eng
Audio: MP3 48000Hz / 2ch / 128kbps Uzb
-

MediaInfo

General
Unique ID : 193859371136495567943248896648519738730 (0x91D7F4F0014722FEA7CBB322DD89E56A)
Format : Matroska
Format version : Version 4 / Version 2
File size : 2.48 GiB
Duration : 1h 53mn
Overall bit rate : 3 124 Kbps
Movie name : Xusan_Gr@nd
Encoded date : UTC 2017-11-27 18:50:36
Writing application : mkvmerge v6.8.0 ('Theme for Great Cities') 64bit built on Mar 2 2014 21:34:26
Writing library : libebml v1.3.0 + libmatroska v1.4.1
Video
ID : 1
Format : AVC
Format/Info : Advanced Video Codec
Format profile : High@L4.1
Format settings, CABAC : Yes
Format settings, ReFrames : 10 frames
Codec ID : V_MPEG4/ISO/AVC
Duration : 1h 53mn
Bit rate : 2 100 Kbps
Width : 1 024 pixels
Height : 428 pixels
Display aspect ratio : 2.40:1
Frame rate mode : Variable
Frame rate : 23.976 fps
Standard : Component
Color space : YUV
Chroma subsampling : 4:2:0
Bit depth : 8 bits
Scan type : Progressive
Bits/(Pixel*Frame) : 0.200
Stream size : 1.62 GiB (65%)
Writing library : x264 core 144 r2525
Encoding settings : cabac=1 / ref=10 / deblock=1:-1:-1 / analyse=0x3:0x112 / me=umh / subme=9 / psy=1 / psy_rd=1.00:1.00 / mixed_ref=0 / me_range=16 / chroma_me=1 / trellis=1 / 8x8dct=1 / cqm=0 / deadzone=21,11 / fast_pskip=1 / chroma_qp_offset=-4 / threads=6 / lookahead_threads=1 / sliced_threads=0 / nr=0 / decimate=1 / interlaced=0 / bluray_compat=0 / constrained_intra=0 / bframes=10 / b_pyramid=2 / b_adapt=2 / b_bias=6 / direct=3 / weightb=0 / open_gop=0 / weightp=1 / keyint=239 / keyint_min=23 / scenecut=49 / intra_refresh=0 / rc_lookahead=40 / rc=2pass / mbtree=1 / bitrate=2100 / ratetol=1.0 / qcomp=0.80 / qpmin=4 / qpmax=69 / qpstep=10 / cplxblur=20.0 / qblur=0.5 / vbv_maxrate=4200 / vbv_bufsize=3500 / nal_hrd=none / filler=0 / ip_ratio=1.00 / aq=3:1.00
Default : Yes
Forced : No
Audio #1
ID : 2
Format : AC-3
Format/Info : Audio Coding 3
Mode extension : CM (complete main)
Format settings, Endianness : Big
Codec ID : A_AC3
Duration : 1h 53mn
Bit rate mode : Constant
Bit rate : 448 Kbps
Channel(s) : 6 channels
Channel positions : Front: L C R, Side: L R, LFE
Sampling rate : 48.0 KHz
Bit depth : 16 bits
Compression mode : Lossy
Delay relative to video : -83ms
Stream size : 365 MiB (14%)
Language : Russian
Default : Yes
Forced : No
Audio #2
ID : 3
Format : AC-3
Format/Info : Audio Coding 3
Mode extension : CM (complete main)
Format settings, Endianness : Big
Codec ID : A_AC3
Duration : 1h 53mn
Bit rate mode : Constant
Bit rate : 448 Kbps
Channel(s) : 6 channels
Channel positions : Front: L C R, Side: L R, LFE
Sampling rate : 48.0 KHz
Bit depth : 16 bits
Compression mode : Lossy
Delay relative to video : -83ms
Stream size : 365 MiB (14%)
Language : English
Default : No
Forced : No
Audio #3
ID : 4
Format : MPEG Audio
Format version : Version 1
Format profile : Layer 3
Mode : Joint stereo
Mode extension : MS Stereo
Codec ID : A_MPEG/L3
Codec ID/Hint : MP3
Duration : 1h 53mn
Bit rate mode : Constant
Bit rate : 128 Kbps
Channel(s) : 2 channels
Sampling rate : 44.1 KHz
Compression mode : Lossy
Delay relative to video : -83ms
Stream size : 104 MiB (4%)
Title : Xusan_Gr@nd
Writing library : LAME3.98.2
Language : Uzbek
Default : No
Forced : No
-


So‘ngi marta tahrirlandi: Gr@nd (2017-12-05 19:54), Jami tahrirlangan 3 marta
Profil ShX

Gr@nd ®

Jins:
Yigit
Staj:
9 oy 27 kun
Xabarlar:
150

Qayerdan: Jizzax Forish

Taqiq:

satko0805 Talabiga binoan

Mavzu yaratish 03-Dek-2017 20:32 (9 daqiqa o‘tgach)

Iqitibos

Profil ShX

MRLG

Jins:
Yigit
Staj:
11 oy 6 kun
Xabarlar:
379
Taqiq:

Vampire_1987, bundan keyin Tekshirildi maqomini berishdan oldin tarqatmani bir ko'zdan kechirib chiqing. Kamchiliklarini yo to'g'rilang yoki tarqatma muallifiga bu haqida bildiring.
HDip degan videoning sifatini qayerda ko'rgansiz ? to'g'ri bunda xatolik ketgan, shularga ham e'tibor bering. Filmda ishtirok etganlarni nomlari lotin alifbosida bo'lishi kerak.

Mavzu yaratish 04-Dek-2017 08:45 (12 soat o‘tgach)

Iqitibos

Profil ShX
Xabarlarni ko‘rsatish:    

Hozirgi vaqt: 23-Iyul 03:12

Vaqtlar farqi: UTC + 5



Siz mavzu yaratishingiz mumkin emas
Siz xabarlarga javob qaytarishingiz mumkin emas
Siz o‘z xabarlaringizni tahrirlashingiz mumkin emas
Siz o‘z xabarlaringizni o‘chirishingiz mumkin emas
Siz so‘rovlarda ovoz berishingiz mumkin emas
Siz xabalarga fayllarni biriktirishingiz mumkin emas
Siz fayllarni ko‘chirishingiz mumkin emas