˂
˃
Tarqatmalar statistikasi
Yoʻq
 
     
 
 

Gr@nd ®

Jins:
Yigit
Staj:
1 yil 1 oy
Xabarlar:
158

Qayerdan: Jizzax Forish

Taqiq:

To'qnashuv / Автобан / Collide-
Davlat: Britain, Germany
Janr: Jangari, Triller
Chiqqan yili: 2016
Davomiyligi: 01:38:43-Перевод: Профессиональный (дублированный) O'zbek tilida-Rejissiyor: Eren Krivi-Rollarda: Felicity Jones, Anthony Hopkins, Nicholas Holt, Ben Kingsley, Nadia Hilker, Marwan Kenzari, Clemens Schick, Alexander Jovanovic, Christian Perersen, Lindsay Elizabeth-Описание: Американский турист Кейси Штайн, путешествуя с подругой по Европе, оказывается втянутым в разборки между двумя враждующими мафиозными группировками. Одну из них возглавляет Хаген, другую — Геран. И с этого момента начинается смертельно опасная гонка на запредельной скорости по автобанам Германии-
Качество видео: BDRip
Формат видео: MKV-Video: MPEG4 Video (H264) 1024x426 23.976fps 2 577 Kbps
Audio: Dolby AC3 48000Hz 6ch Rus
Audio: Dolby AC3 48000Hz 6ch Eng
Audio: MP3 48000Hz 2ch 128kbps Uzb-

MediaInfo

General
Unique ID : 225810212254354999891159293987973288308 (0xA9E17707276690ABBC436D30ED6CD174)
Format : Matroska
Format version : Version 4 / Version 2
File size : 2.44 GiB
Duration : 1h 38mn
Overall bit rate : 3 540 Kbps
Movie name : Xusan_Gr@nd
Encoded date : UTC 2017-09-24 19:09:44
Writing application : mkvmerge v6.8.0 ('Theme for Great Cities') 64bit built on Mar 2 2014 21:34:26
Writing library : libebml v1.3.0 + libmatroska v1.4.1
Video
ID : 1
Format : AVC
Format/Info : Advanced Video Codec
Format profile : High@L4.1
Format settings, CABAC : Yes
Format settings, ReFrames : 10 frames
Codec ID : V_MPEG4/ISO/AVC
Duration : 1h 38mn
Bit rate : 2 577 Kbps
Width : 1 024 pixels
Height : 426 pixels
Display aspect ratio : 2.40:1
Frame rate : 23.976 fps
Color space : YUV
Chroma subsampling : 4:2:0
Bit depth : 8 bits
Scan type : Progressive
Bits/(Pixel*Frame) : 0.246
Stream size : 1.73 GiB (71%)
Writing library : x264 core 146 r2538 121396c
Encoding settings : cabac=1 / ref=10 / deblock=1:-3:-3 / analyse=0x3:0x133 / me=umh / subme=11 / psy=1 / psy_rd=1.00:0.07 / mixed_ref=1 / me_range=48 / chroma_me=1 / trellis=2 / 8x8dct=1 / cqm=0 / deadzone=21,11 / fast_pskip=0 / chroma_qp_offset=-3 / threads=6 / lookahead_threads=1 / sliced_threads=0 / nr=0 / decimate=0 / interlaced=0 / bluray_compat=0 / constrained_intra=0 / bframes=10 / b_pyramid=2 / b_adapt=2 / b_bias=0 / direct=3 / weightb=1 / open_gop=0 / weightp=2 / keyint=240 / keyint_min=23 / scenecut=40 / intra_refresh=0 / rc_lookahead=40 / rc=2pass / mbtree=0 / bitrate=2577 / ratetol=1.0 / qcomp=0.60 / qpmin=0 / qpmax=69 / qpstep=4 / cplxblur=20.0 / qblur=0.5 / vbv_maxrate=50000 / vbv_bufsize=62500 / nal_hrd=none / filler=0 / ip_ratio=1.40 / pb_ratio=1.30 / aq=1:1.00
Language : English
Default : Yes
Forced : No
Audio #1
ID : 2
Format : AC-3
Format/Info : Audio Coding 3
Mode extension : CM (complete main)
Format settings, Endianness : Big
Codec ID : A_AC3
Duration : 1h 38mn
Bit rate mode : Constant
Bit rate : 384 Kbps
Channel(s) : 6 channels
Channel positions : Front: L C R, Side: L R, LFE
Sampling rate : 48.0 KHz
Bit depth : 16 bits
Compression mode : Lossy
Stream size : 271 MiB (11%)
Title : iTunes
Language : Russian
Default : Yes
Forced : No
Audio #2
ID : 3
Format : AC-3
Format/Info : Audio Coding 3
Mode extension : CM (complete main)
Format settings, Endianness : Big
Codec ID : A_AC3
Duration : 1h 38mn
Bit rate mode : Constant
Bit rate : 448 Kbps
Channel(s) : 6 channels
Channel positions : Front: L C R, Side: L R, LFE
Sampling rate : 48.0 KHz
Bit depth : 16 bits
Compression mode : Lossy
Stream size : 316 MiB (13%)
Title : Original
Language : English
Default : No
Forced : No
Audio #3
ID : 4
Format : MPEG Audio
Format version : Version 1
Format profile : Layer 3
Mode : Joint stereo
Mode extension : MS Stereo
Codec ID : A_MPEG/L3
Codec ID/Hint : MP3
Duration : 1h 38mn
Bit rate mode : Constant
Bit rate : 128 Kbps
Channel(s) : 2 channels
Sampling rate : 44.1 KHz
Compression mode : Lossy
Stream size : 90.4 MiB (4%)
Title : Xusan_Gr@nd
Language : Uzbek
Default : No
Forced : No


So‘ngi marta tahrirlandi: Gr@nd (2017-10-27 06:47), Jami tahrirlangan 1 marta
Profil ShX

vuelta

Jins:
Yigit
Staj:
1 yil 3 oy
Xabarlar:
299
Taqiq:

buni kuramiz

Mavzu yaratish 30-Sen-2017 09:32 (1 daqiqa o‘tgach)

Iqitibos

Profil ShX

Gr@nd ®

Jins:
Yigit
Staj:
1 yil 1 oy
Xabarlar:
158

Qayerdan: Jizzax Forish

Taqiq:

Ko'rishni xammaga tafsiya qilaman

Mavzu yaratish 30-Sen-2017 09:45 (12 daqiqa o‘tgach)

Iqitibos

Profil ShX

Jamik

Jins:
Ko‘rsatilmagan
Staj:
1 yil 2 oy
Xabarlar:
14
Taqiq:

218Ko'rishni xammaga tafsiya qilaman
pirlar yuq

Mavzu yaratish 06-Okt-2017 01:34 (5 kun o‘tgach)

Iqitibos

Profil ShX

Leo

Jins:
Ko‘rsatilmagan
Staj:
1 yil 1 oy
Xabarlar:
6
Taqiq:

Pirlar kodini jo'nating iltimos????

Mavzu yaratish 07-Okt-2017 22:24 (1 kun 20 soat o‘tgach)

Iqitibos

Profil ShX

nurillo123

Jins:
Ko‘rsatilmagan
Staj:
1 yil
Xabarlar:
16
Taqiq:

Gr@nd, qasi pragramadan uzbecha qip vidoga joylovosiz pragramani nominei yozvorin

Mavzu yaratish 28-Noy-2017 19:09 (1 oy 20 kun o‘tgach)

Iqitibos

Profil ShX
Xabarlarni ko‘rsatish:    

Hozirgi vaqt: 21-Noy 18:33

Vaqtlar farqi: UTC + 5



Siz mavzu yaratishingiz mumkin emas
Siz xabarlarga javob qaytarishingiz mumkin emas
Siz o‘z xabarlaringizni tahrirlashingiz mumkin emas
Siz o‘z xabarlaringizni o‘chirishingiz mumkin emas
Siz so‘rovlarda ovoz berishingiz mumkin emas
Siz xabalarga fayllarni biriktirishingiz mumkin emas
Siz fayllarni ko‘chirishingiz mumkin emas