˂
˃
Tarqatmalar statistikasi
Ko‘chirmoqdaman: [ 1 ]
Ko‘chirib bo‘ldim: [ 6 ]
 
     
 
 

azizbek ®

Jins:
Yigit
Staj:
1 yil
Xabarlar:
139

Qayerdan: Surxondaryo

Taqiq:

Tor: Ragnarok- -Davlat: AQSH
Janr: Fantastika, jangari, sarguzasht
Chiqqan yili: 2017
Davomiyligi: 02:10:44-Tarjima:
Ko'p ovozli, kadr ortidan professional tarjima ["Favvora Film"] studiyasi (O'zbek tilida)
Ko'p ovozli Professional (dublyaj qilingan) (Rus tilida)
Rejissiyor: Тайка Вайтити / Taika Waititi-Rollarda: Chris Hemsworth/Thor, Tom Hiddleston/Loki, Cate Blanchett/Hela, Idris Elba/Heimdall, Jeff Goldblum/Grandmaster
Tessa Thompson/Valkyrie,Karl Urban/Skurge,Mark Ruffalo/Bruce Banner / Hulk, Anthony Hopkins/Odin, Benedict Cumberbatch/Doctor Strange
Rachel House/Topaz-Описание: Вернувшись в Асгард в поисках таинственного врага, ведущего охоту на Камни Бесконечности, Тор обнаруживает, что действия его брата Локи, захватившего трон Асгарда, привели к приближению наиболее страшного события - Рагнарёка. По легенде, это ознаменует последнюю битву Асгарда, последствием которой станет его полное уничтожение. В попытке предотвратить это событие, Тору предстоит прибегнуть к помощи своего товарища из Мстителей - Халка. Вместе, им предстоит столкнуться лицом к лицу со злейшим врагом всех девяти миров - огненным демоном Суртуром, целью которого является исполнение пророчества о Рагнарёке и уничтожение девяти миров-Videoning sifati: WEB-DLRip
Формат видео: MKV
Dunyodagi primierasi: 10.10.2017
КиноПоиск: 7.701 (61 429) IMDb: 8.0 (220 164)
Video: XviD / 720x304 / 23.976 fps / 1287 kbps avg / 0.25 bit/pixel
Audio1: AC3 / 48 kHz / 2/0 (L,R) ch / 192 kbps
Audio2: AC3 / 48 kHz / 2/0 (L,R) ch / 192 kbps-

MediaInfo

General
Unique ID : 158816680926416645414517115796716864861 (0x777AFAEAE0801147F98AA49537E5455D)
Complete name : D:\MEDIA\kino\uztreckers\Thor.Ragnarok.2017.WEB-DLRip(UZ,RU).mkv
Format : Matroska
Format version : Version 4 / Version 2
File size : 1.53 GiB
Duration : 2 h 10 min
Overall bit rate : 1 674 kb/s
Encoded date : UTC 2018-02-14 19:31:59
Writing application : mkvmerge v20.0.0 ('I Am The Sun') 64-bit
Writing library : libebml v1.3.5 + libmatroska v1.4.8
Video
ID : 1
Format : MPEG-4 Visual
Format profile : Advanced Simple@L5
Format settings, BVOP : 2
Format settings, QPel : No
Format settings, GMC : No warppoints
Format settings, Matrix : Default (MPEG)
Codec ID : V_MS/VFW/FOURCC / XVID
Codec ID/Hint : XviD
Duration : 2 h 10 min
Bit rate : 1 288 kb/s
Width : 720 pixels
Height : 304 pixels
Display aspect ratio : 2.35:1
Frame rate mode : Constant
Frame rate : 23.976 (23976/1000) FPS
Color space : YUV
Chroma subsampling : 4:2:0
Bit depth : 8 bits
Scan type : Progressive
Compression mode : Lossy
Bits/(Pixel*Frame) : 0.245
Stream size : 1.18 GiB (77%)
Writing library : XviD 73
Language : English
Default : Yes
Forced : Yes
Audio #1
ID : 2
Format : AC-3
Format/Info : Audio Coding 3
Format settings, Endianness : Big
Codec ID : A_AC3
Duration : 2 h 10 min
Bit rate mode : Constant
Bit rate : 192 kb/s
Channel(s) : 2 channels
Channel positions : Front: L R
Sampling rate : 48.0 kHz
Frame rate : 31.250 FPS (1536 SPF)
Bit depth : 16 bits
Compression mode : Lossy
Stream size : 180 MiB (11%)
Language : Uzbek
Service kind : Complete Main
Default : Yes
Forced : No
Audio #2
ID : 3
Format : AC-3
Format/Info : Audio Coding 3
Format settings, Endianness : Big
Codec ID : A_AC3
Duration : 2 h 10 min
Bit rate mode : Constant
Bit rate : 192 kb/s
Channel(s) : 2 channels
Channel positions : Front: L R
Sampling rate : 48.0 kHz
Frame rate : 31.250 FPS (1536 SPF)
Bit depth : 16 bits
Compression mode : Lossy
Stream size : 180 MiB (11%)
Language : Russian
Service kind : Complete Main
Default : No
Forced : No


So‘ngi marta tahrirlandi: azizbek (2018-05-24 18:10), Jami tahrirlangan 1 marta
Profil ShX

#Epic

Jins:
Yigit
Staj:
1 yil 2 oy
Xabarlar:
50

Qayerdan: Jizzax

Taqiq:

tezlikka 5 baho quyish kere
atiga 1 haftada skachat qilaman. naq 10 kb/s tezlik bilan. ginnesga kiramiz shekilli

Mavzu yaratish 22-Mar-2018 14:11 (1 oy 7 kun o‘tgach)

Iqitibos

Profil ShX

azizbek ®

Jins:
Yigit
Staj:
1 yil
Xabarlar:
139

Qayerdan: Surxondaryo

Taqiq:

#Epic, Uzonlinedan ADSL interneti reklamalarda aytiladiku "Yanada koprogini kuting". Aslida uzOFFline

Mavzu yaratish 22-Mar-2018 19:26 (5 soat o‘tgach)

Iqitibos

Profil ShX

Soft-Release

Jins:
Yigit
Staj:
8 oy 3 kun
Xabarlar:
724

Qayerdan: Kattakurgan

Taqiq:

UzOnline yaxshi provayder shunchaki butun xalq shu provayderga ulangan shuning uchun juda slabiylashib qolgan

Mavzu yaratish 23-Mar-2018 14:35 (19 soat o‘tgach)

Iqitibos

Profil ShX

AxeL

Jins:
Yigit
Staj:
7 oy 30 kun
Xabarlar:
601

Qayerdan: Gronland, Norway

Taqiq:

Men ham filmlarni uztrackerdan olayapman lekin tezlik yaxshi 180larda 2 kunda skachat qlvololaman agar sid bo'sa
MANAM UZONLINE

Mavzu yaratish 04-Apr-2018 00:46 (11 kun o‘tgach)

Iqitibos

Profil ShX
Xabarlarni ko‘rsatish:    

Hozirgi vaqt: 17-Noy 18:19

Vaqtlar farqi: UTC + 5



Siz mavzu yaratishingiz mumkin emas
Siz xabarlarga javob qaytarishingiz mumkin emas
Siz o‘z xabarlaringizni tahrirlashingiz mumkin emas
Siz o‘z xabarlaringizni o‘chirishingiz mumkin emas
Siz so‘rovlarda ovoz berishingiz mumkin emas
Siz xabalarga fayllarni biriktirishingiz mumkin emas
Siz fayllarni ko‘chirishingiz mumkin emas