˂
˃
Tarqatmalar statistikasi
Yoʻq
 
     
 
 

Vampire_1987 ®

Jins:
Ko‘rsatilmagan
Staj:
1 yil 3 oy
Xabarlar:
115
Taqiq:

--Transformerlar 5: So'nggi Ritsar | Transformers: The Last Knight-- Davlat: AQSH
Janr: Fantastika, jangari, triller, sarguzasht
Chiqqan yili: 2017
Davomiyligi: 02:26:51
Tarjima: Dublyaj (Professional)
Tarjima haqida qo'shimcha ma'lumot: MY5--Rejissiyor: Maykl Bey--Rollarda: Mark Uolberg, Entoni Xopkins, Djosh Dyuamel, Lora Xeddok, Santyago Kabrera, Izabela Moner, Djerrod Karmaykl, Stenli Tuchchi, Liam Gerrigan, Martin MakKridi--Описание: Оптимус Прайм исчез. Люди ведут войну с Трансформерами. Ключ к нашему будущему погребен в тайнах прошлого, в скрытой истории Трансформеров на Земле... Миссия по спасению мира ложится на плечи разношерстной компании, состоящей из Кейда Йегера, Бамблби, английского лорда и профессора из Оксфорда. Пришла пора действовать! Жертвы станут героями. Герои станут злодеями. Выстоит только один мир: их или наш.--Sifat: TVRip
Format: AVI
Video: XviD 640x304 25fps 711kbps
Audio: MP3 48000Hz stereo 128kbps----

MediaInfo

General
Complete name : F:\TARJIMA TV\TV_ Go\Transformerlar 5 So'nggi Ritsar 2017.avi
Format : AVI
Format/Info : Audio Video Interleave
File size : 892 MiB
Duration : 2 h 26 min
Overall bit rate : 849 kb/s
Writing application : VirtualDubMod 1.5.10.3 | www.virtualdub-fr.org || (build 2550/release)
Writing library : VirtualDubMod build 2550/release
Video
ID : 0
Format : MPEG-4 Visual
Format profile : Advanced Simple@L5
Format settings, BVOP : 1
Format settings, QPel : No
Format settings, GMC : No warppoints
Format settings, Matrix : Default (H.263)
Codec ID : XVID
Codec ID/Hint : XviD
Duration : 2 h 26 min
Bit rate : 712 kb/s
Width : 640 pixels
Height : 304 pixels
Display aspect ratio : 2.105
Frame rate : 25.000 FPS
Color space : YUV
Chroma subsampling : 4:2:0
Bit depth : 8 bits
Scan type : Progressive
Compression mode : Lossy
Bits/(Pixel*Frame) : 0.146
Stream size : 748 MiB (84%)
Writing library : XviD 73
Audio
ID : 1
Format : MPEG Audio
Format version : Version 1
Format profile : Layer 3
Codec ID : 55
Codec ID/Hint : MP3
Duration : 2 h 26 min
Bit rate mode : Constant
Bit rate : 128 kb/s
Channel(s) : 2 channels
Sampling rate : 48.0 kHz
Compression mode : Lossy
Stream size : 134 MiB (15%)
Alignment : Aligned on interleaves
Interleave, duration : 40 ms (1.00 video frame)
Interleave, preload duratio : 504 ms
Writing library : LAME3.99r
Encoding settings : -m s -V 4 -q 0 -lowpass 17 -b 128
Profil ShX

MRLG

Jins:
Yigit
Staj:
1 yil 3 oy
Xabarlar:
526
Taqiq:

Vampire_1987, Mani qiziqtragan narsa. nega Sifat: TVRip ? agar film TVdan togridan to`g`ri ko`chirib olingan bo`lsa. nega usha TVni logotipi yuq? (Bu yerda ham shunaqa hato)

Mavzu yaratish 03-Okt-2017 09:30 (21 soat o‘tgach)

Iqitibos

Profil ShX

Vampire_1987 ®

Jins:
Ko‘rsatilmagan
Staj:
1 yil 3 oy
Xabarlar:
115
Taqiq:

MRLG, Bu Xato Emas Aksincha TV dan Yangi Usulda Yani Konvertor PS da Konvertor Qilingan TVdan Yozganda TS MPEG Holda Yozadi Razrisheniya 720x576 Qilib Qora Palasasini Olib Tashlaganman .... Bu Oddiy Va Samarali Sifat Oshirishga Sabab Boladi Video Boyicha Sinamagan Yollarim Qolmadi Siz Ham Sinab Koring ....

Mavzu yaratish 04-Okt-2017 19:29 (1 kun 9 soat o‘tgach)

Iqitibos

Profil ShX

Jamik

Jins:
Ko‘rsatilmagan
Staj:
1 yil 3 oy
Xabarlar:
14
Taqiq:

ko'chirib bolmayaptiyu

Mavzu yaratish 05-Okt-2017 13:14 (17 soat o‘tgach)

Iqitibos

Profil ShX
Xabarlarni ko‘rsatish:    

Hozirgi vaqt: 11-Dek 21:57

Vaqtlar farqi: UTC + 5



Siz mavzu yaratishingiz mumkin emas
Siz xabarlarga javob qaytarishingiz mumkin emas
Siz o‘z xabarlaringizni tahrirlashingiz mumkin emas
Siz o‘z xabarlaringizni o‘chirishingiz mumkin emas
Siz so‘rovlarda ovoz berishingiz mumkin emas
Siz xabalarga fayllarni biriktirishingiz mumkin emas
Siz fayllarni ko‘chirishingiz mumkin emas