˂
˃
Tarqatmalar statistikasi
Yoʻq
 
     
 
 

Javohir123 ®

Jins:
Yigit
Staj:
1 yil 1 oy
Xabarlar:
48
Taqiq:

Transformerlar:So'nggi Ritsar | Трансформеры: Последний рыцарь | Transformers: The Last Knight
--Davlat: AQSH
Janr: Fantastika,Jangari,Triller,Sarguzasht
Chiqqan yili: 2017
Davomiyligi: 02:34:43-Tarjima: Professional (dublyaj qilingan) O'zbek tilida
Rejissiyor: Maykl Bay-Rollarda: Mark Wahlberg, Entoni Hopkins, Josh Duhamel, Laura Haddock, Santiago Cabrera, Izabela Tarzda, Tucci, Liam, Garrigan, Martin Jerrod Carmichael Stanley McCready-Описание: Optimus Praym g'oyib bo'ldi. Odamlar Transformer bilan urushda. Bizning kelajagimizning kaliti o'tmish sirlarini, Transformatorlarning Yer yuzida yashirin tarixida ko'milgan ... Dunyoni qutqarish missiyasi Kеyda Yеgеra, Bamblbi, ingliz lordi va Oksford professori bo'lgan turli kompaniyalarning ylkasida. Harakat qilish vaqti keldi! Qurbonlar qahramon bo'ladi. Qahramonlar yomon odam bo'ladi. Faqatgina bitta dunyo: ular yoki biz.GR@ND tamonidan tarjima qilindi-Videoning sifati: WEB-DL
Формат видео: MKV-Video: MPEG4 Video (H264) 1920x1010 23.976fps
Audio: Dolby AC3 48000Hz 6ch 384kbps Rus
Audio: Dolby AC3 48000Hz 6ch 384kbps Eng
Audio: MP3 44100Hz stereo 128kbps Uzb-

MediaInfo

General
Unique ID : 230708545465491549085211128307729475233 (0xAD90D9804A4355BDA30791303C92A6A1)
Complete name :
Format : Matroska
Format version : Version 4 / Version 2
File size : 6.49 GiB
Duration : 2 h 34 min
Overall bit rate : 6 008 kb/s
Encoded date : UTC 2017-11-20 18:16:19
Writing application : mkvmerge v9.2.0 ('Photograph') 64bit
Writing library : libebml v1.3.3 + libmatroska v1.4.4
Video
ID : 1
Format : AVC
Format/Info : Advanced Video Codec
Format profile : High@L4
Format settings, CABAC : Yes
Format settings, RefFrames : 4 frames
Codec ID : V_MPEG4/ISO/AVC
Duration : 2 h 34 min
Bit rate : 5 111 kb/s
Width : 1 920 pixels
Height : 1 010 pixels
Display aspect ratio : 1.901
Frame rate mode : Constant
Frame rate : 23.976 (24000/1001) FPS
Color space : YUV
Chroma subsampling : 4:2:0
Bit depth : 8 bits
Scan type : Progressive
Bits/(Pixel*Frame) : 0.110
Stream size : 5.52 GiB (85%)
Language : English
Default : Yes
Forced : No
Color range : Limited
Color primaries : BT.709
Transfer characteristics : BT.709
Matrix coefficients : BT.709
Audio #1
ID : 2
Format : AC-3
Format/Info : Audio Coding 3
Format settings, Endianness : Big
Codec ID : A_AC3
Duration : 2 h 34 min
Bit rate mode : Constant
Bit rate : 384 kb/s
Channel(s) : 6 channels
Channel positions : Front: L C R, Side: L R, LFE
Sampling rate : 48.0 kHz
Frame rate : 31.250 FPS (1536 SPF)
Bit depth : 16 bits
Compression mode : Lossy
Delay relative to video : -43 ms
Stream size : 424 MiB (6%)
Title : iTunes
Language : Russian
Service kind : Complete Main
Default : Yes
Forced : No
Audio #2
ID : 3
Format : AC-3
Format/Info : Audio Coding 3
Format settings, Endianness : Big
Codec ID : A_AC3
Duration : 2 h 34 min
Bit rate mode : Constant
Bit rate : 384 kb/s
Channel(s) : 6 channels
Channel positions : Front: L C R, Side: L R, LFE
Sampling rate : 48.0 kHz
Frame rate : 31.250 FPS (1536 SPF)
Bit depth : 16 bits
Compression mode : Lossy
Delay relative to video : -43 ms
Stream size : 424 MiB (6%)
Title : Original
Language : English
Service kind : Complete Main
Default : No
Forced : No
Audio #3
ID : 4
Format : MPEG Audio
Format version : Version 1
Format profile : Layer 3
Mode : Joint stereo
Mode extension : MS Stereo
Codec ID : A_MPEG/L3
Codec ID/Hint : MP3
Duration : 2 h 34 min
Bit rate mode : Constant
Bit rate : 128 kb/s
Channel(s) : 2 channels
Sampling rate : 44.1 kHz
Frame rate : 38.281 FPS (1152 SPF)
Compression mode : Lossy
Delay relative to video : -43 ms
Stream size : 141 MiB (2%)
Title : Javohir
Writing library : LAME3.98.2
Language : Uzbek
Default : No
Forced : No


So‘ngi marta tahrirlandi: Javohir123 (2017-11-23 14:05), Jami tahrirlangan 2 marta
Profil ShX

Javohir123 ®

Jins:
Yigit
Staj:
1 yil 1 oy
Xabarlar:
48
Taqiq:

HD formatda ko'chirib olishingizni tavsiya qilaman

Mavzu yaratish 21-Noy-2017 08:04 (3 daqiqa o‘tgach)

Iqitibos

Profil ShX

Javohir123 ®

Jins:
Yigit
Staj:
1 yil 1 oy
Xabarlar:
48
Taqiq:

Gr@nd Rahmat tarjima uchun

Mavzu yaratish 21-Noy-2017 13:21 (5 soat o‘tgach)

Iqitibos

Profil ShX

Gr@nd

Jins:
Yigit
Staj:
1 yil 1 oy
Xabarlar:
158

Qayerdan: Jizzax Forish

Taqiq:

Ovozi yaxshi tuahkami

Mavzu yaratish 22-Noy-2017 08:57 (19 soat o‘tgach)

Iqitibos

Profil ShX

Gr@nd

Jins:
Yigit
Staj:
1 yil 1 oy
Xabarlar:
158

Qayerdan: Jizzax Forish

Taqiq:

Javohir123, ovozi tuahushiga etibor ber shogirt

Mavzu yaratish 22-Noy-2017 08:59 (1 daqiqa o‘tgach)

Iqitibos

Profil ShX

Seven Studio

Jins:
Ko‘rsatilmagan
Staj:
1 yil
Xabarlar:
5
Taqiq:

Javohir123, Siz qo'ygan kinolarni ovozi yaxshi tushmas ekan

Mavzu yaratish 22-Noy-2017 10:46 (1 soat 47 daqiqa o‘tgach)

Iqitibos

Profil ShX

Seven Studio

Jins:
Ko‘rsatilmagan
Staj:
1 yil
Xabarlar:
5
Taqiq:

Oldingi relizlaringizda shunaqa edi

Mavzu yaratish 22-Noy-2017 10:47 (49 soniya o‘tgach)

Iqitibos

Profil ShX

Seven Studio

Jins:
Ko‘rsatilmagan
Staj:
1 yil
Xabarlar:
5
Taqiq:

http://uztracker.me/viewtopic.php?t=158 manashu kinongizda ovoz olidn va orqada qolip ketgan joylari juda ko'p

Mavzu yaratish 22-Noy-2017 10:49 (1 daqiqa o‘tgach)

Iqitibos

Profil ShX

Seven Studio

Jins:
Ko‘rsatilmagan
Staj:
1 yil
Xabarlar:
5
Taqiq:

Ustozingiz Gr@nd, da o'rganing

Mavzu yaratish 22-Noy-2017 10:49 (33 soniya o‘tgach)

Iqitibos

Profil ShX

Javohir123 ®

Jins:
Yigit
Staj:
1 yil 1 oy
Xabarlar:
48
Taqiq:

Bitta ana shu kinoda yaxshi tushmagan boshqalarida emas

Mavzu yaratish 22-Noy-2017 13:09 (2 soat 20 daqiqa o‘tgach)

Iqitibos

Profil ShX

nurillo123

Jins:
Ko‘rsatilmagan
Staj:
1 yil
Xabarlar:
16
Taqiq:

Javohir123, qasi pragramadan uzbecha qip vidoga joylovosiz pragramani nominei yozvorin

Mavzu yaratish 28-Noy-2017 19:15 (6 kun o‘tgach)

Iqitibos

Profil ShX
Xabarlarni ko‘rsatish:    

Hozirgi vaqt: 15-Noy 12:01

Vaqtlar farqi: UTC + 5



Siz mavzu yaratishingiz mumkin emas
Siz xabarlarga javob qaytarishingiz mumkin emas
Siz o‘z xabarlaringizni tahrirlashingiz mumkin emas
Siz o‘z xabarlaringizni o‘chirishingiz mumkin emas
Siz so‘rovlarda ovoz berishingiz mumkin emas
Siz xabalarga fayllarni biriktirishingiz mumkin emas
Siz fayllarni ko‘chirishingiz mumkin emas