˂
˃
Tarqatmalar statistikasi
Yoʻq
 
     
 
 

UZTEXNO ®

Jins:
Yigit
Staj:
1 yil 2 oy
Xabarlar:
25
Taqiq:

Tug'ilmaganlar Chiqarilgan yili: 2017
Davlat:
Janr: Mistik Triller
Davomiyligi: 01:17:21
Tarjima: Original (Tarjima talab qilinmaydi)
Rejissor: Behzod Joniyev
Rollarda: Mushtaraybegim Baxritdinova, Lola Yoldosheva, Shavkat Komilov, Kamol Bobonazorov, Oybek Odilov va boshqalar...
Tavsif: “Star Media” kino studiyasi mahsuloti hisoblangan “Tug‘ilmaganlar” kino kartinasi “Barhayot”, “Men yolg‘onchiman” filmlarining rejissyori Behzod Joniyev tomonidan suratga olindi. Mazkur filmda bugungi kunning dolzarb muammolaridan biri haqida so‘z yuritiladi.
Video Sifati: HDRip
Video Formati: MP4
Video: MPEG4 Video (H264) 1280x720 25fps 617kbps
Audio: AAC 44100Hz stereo 125kbps

MediaInfo

General
Complete name : E:\Kino\Tug'ilmaganlar (o'zbek film) - Тугилмаганлар (узбекфильм).MP4
Format : MPEG-4
Format profile : Base Media / Version 2
Codec ID : mp42
File size : 413 MiB
Duration : 1h 17mn
Overall bit rate mode : Variable
Overall bit rate : 747 Kbps
Encoded date : UTC 2017-10-15 07:08:31
Tagged date : UTC 2017-10-15 07:08:31
gsst : 0
gstd : 4641297
Video
ID : 1
Format : AVC
Format/Info : Advanced Video Codec
Format profile : Main@L3.1
Format settings, CABAC : Yes
Format settings, ReFrames : 3 frames
Codec ID : avc1
Codec ID/Info : Advanced Video Coding
Duration : 1h 17mn
Bit rate mode : Variable
Bit rate : 618 Kbps
Width : 1 280 pixels
Height : 720 pixels
Display aspect ratio : 16:9
Frame rate mode : Constant
Frame rate : 25.000 fps
Color space : YUV
Chroma subsampling : 4:2:0
Bit depth : 8 bits
Scan type : Progressive
Bits/(Pixel*Frame) : 0.027
Stream size : 342 MiB (83%)
Title : ISO Media file produced by Google Inc. Created on: 10/15/2017.
Encoded date : UTC 2017-10-15 07:08:31
Tagged date : UTC 2017-10-15 07:08:31
Color primaries : BT.709
Transfer characteristics : BT.709
Matrix coefficients : BT.709
Audio
ID : 2
Format : AAC
Format/Info : Advanced Audio Codec
Format profile : LC
Codec ID : 40
Duration : 1h 17mn
Bit rate mode : Variable
Bit rate : 126 Kbps
Channel(s) : 2 channels
Channel positions : Front: L R
Sampling rate : 44.1 KHz
Compression mode : Lossy
Delay relative to video : 40ms
Stream size : 69.5 MiB (17%)
Title : ISO Media file produced by Google Inc. Created on: 10/15/2017.
Encoded date : UTC 2017-10-15 07:08:31
Tagged date : UTC 2017-10-15 07:08:31
Profil ShX

MRLG

Jins:
Yigit
Staj:
1 yil 3 oy
Xabarlar:
524
Taqiq:

Relizga ozgina o`zgarish kiritdim. Reliz uchun esa sizga alohida rahmat.

Mavzu yaratish 18-Okt-2017 15:17 (1 soat 33 daqiqa o‘tgach)

Iqitibos

Profil ShX

vuelta

Jins:
Yigit
Staj:
1 yil 3 oy
Xabarlar:
299
Taqiq:

xa reliz uchun rahmat

Mavzu yaratish 18-Okt-2017 16:40 (1 soat 23 daqiqa o‘tgach)

Iqitibos

Profil ShX

UZTEXNO ®

Jins:
Yigit
Staj:
1 yil 2 oy
Xabarlar:
25
Taqiq:

MRLG, Raxmat sizgaxam zor bolibdi) vuelta, Raxmatlik ish emasku )

Mavzu yaratish 18-Okt-2017 17:04 (23 daqiqa o‘tgach)

Iqitibos

Profil ShX

UZTEXNO ®

Jins:
Yigit
Staj:
1 yil 2 oy
Xabarlar:
25
Taqiq:

MRLG, yomon tortyapsizda ) Youtubega tezlik qolmayapti )

Mavzu yaratish 18-Okt-2017 19:15 (2 soat 11 daqiqa o‘tgach)

Iqitibos

Profil ShX
Xabarlarni ko‘rsatish:    

Hozirgi vaqt: 21-Noy 19:11

Vaqtlar farqi: UTC + 5



Siz mavzu yaratishingiz mumkin emas
Siz xabarlarga javob qaytarishingiz mumkin emas
Siz o‘z xabarlaringizni tahrirlashingiz mumkin emas
Siz o‘z xabarlaringizni o‘chirishingiz mumkin emas
Siz so‘rovlarda ovoz berishingiz mumkin emas
Siz xabalarga fayllarni biriktirishingiz mumkin emas
Siz fayllarni ko‘chirishingiz mumkin emas