˂
˃
Tarqatmalar statistikasi
Ko‘chirmoqdaman: [ 2 ]
Ko‘chirib bo‘ldim: [ 4 ]
 
     
 
 

Unofficial ®

Jins:
Yigit
Staj:
8 oy 14 kun
Xabarlar:
445

Qayerdan: Nukus

Taqiq:

Turkcha kliplar #5

Chiqqan yili: 2018
Davlat: Турция/ Türkıye
Davomiyligi: 02:01:07
Sifat: HDRip
Format: MPEG4
Video: H26x, 1920x1080 25fps 900 ~ 3759 kbps
Audio: AAC, 44100Hz stereo 125kbps
--

Pleylist

Bahadır Tatlıöz - Yangınlar Var (New Version) 1080 HD
Bengü - Altın Çağ 1080 HD
Demet Akalın - Canıma da Değsin 1080 HD
Denisa feat. Ender Çabuker - Alamazsın 1080 HD
Deniz Sipahi - Özgürlüğüm Senin 1080 HD
Ece Seçkin - Dibine Dibine 1080 HD
Edis feat. Emina - Güzelliğine 1080 HD
Emrah Karaduman - Dipsiz Kuyum feat. Aleyna Tilki 1080 HD
Emrah Karaduman - Sürgün Aşkımız feat. Derya Uluğ 1080 HD
Emrah Karaduman - En Güzel Yenilgim feat. Ebru Yaşar 1080 HD
Emre Kaya - Seni Seve Seve 1080 HD
Eypio & Burak King - #Günah Benim ( Official Video ) 1080 HD
Ferhat Göçer - Reva 1080 HD
Fulin - Çek Kenara 1080 HD
Gülben Ergen & Oğuzhan Koç - Aşkla Aynı Değil 1080 HD
Gülşen - Dan Dan 1080 HD
Güven Yüreyi - Kabuk 1080 HD
İdo Tatlıses - Bileklerime Kadar Acıyo 1080 HD
İrem Derici - Ben Tek Siz Hepiniz 1080 HD
İrem Derici - Kalbimin Tek Sahibine 1080 HD
Mehmet Erdem - Gibi Gibi 1080 HD
Melis Kar - Yatıya 1080 HD
Merve Özbey - Vuracak 1080 HD
Mustafa Sandal feat. Eypio - Reset 1080 HD
Oğuzhan Koç - Sebepsiz Aşk 1080 HD
Oğuzhan Koç - Takdir-i İlahi 1080 HD
Selin Ciğerci feat. Ebru Polat - 5 Karat 1080 HD
Seçil Gür feat. Su - Yeniden Başlasın 1080 HD
Şimal - Z Raporu 1080 HD
Sinan Akçıl - Maher Zain - Gülmek Sadaka 1080 HD
Sinan Akçıl - Tabi Tabi 1080 HD
Sinan Ceceli feat. Mustafa Ceceli - Aşığız 1080 HD
Şiva - Tatlı Telaş 1080 HD
Yalın - Sensiz Ben Ne Olayım 1080 HD
Zakkum - Dile Kolay Kalbe Değil 1080 HD
Ziynet Sali feat. Berk Coşkun - Hadi Hoppalara 1080 HD

Media Info

General
Format : MPEG-4
Format profile : Base Media / Version 2
Codec ID : mp42 (mp41/isom)
File size : 127 MiB
Duration : 4 min 43 s
Overall bit rate : 3 750 kb/s
Encoded date : UTC 2017-10-12 20:05:44
Tagged date : UTC 2017-10-12 20:05:44
Video
ID : 1
Format : AVC
Format/Info : Advanced Video Codec
Format profile : High@L4
Format settings, CABAC : Yes
Format settings, ReFrames : 3 frames
Codec ID : avc1
Codec ID/Info : Advanced Video Coding
Duration : 4 min 43 s
Bit rate : 3 622 kb/s
Width : 1 920 pixels
Height : 1 080 pixels
Display aspect ratio : 16:9
Frame rate mode : Constant
Frame rate : 25.000 FPS
Color space : YUV
Chroma subsampling : 4:2:0
Bit depth : 8 bits
Scan type : Progressive
Bits/(Pixel*Frame) : 0.070
Stream size : 122 MiB (97%)
Encoded date : UTC 2017-10-12 20:05:44
Tagged date : UTC 2017-10-12 20:05:44
Color range : Limited
Color primaries : BT.709
Transfer characteristics : BT.709
Matrix coefficients : BT.709
mdhd_Duration : 283400
Audio
ID : 2
Format : AAC
Format/Info : Advanced Audio Codec
Format profile : LC
Codec ID : 40
Duration : 4 min 43 s
Bit rate mode : Constant
Bit rate : 126 kb/s
Nominal bit rate : 4 448 b/s
Channel(s) : 2 channels
Channel positions : Front: L R
Sampling rate : 44.1 kHz
Frame rate : 43.066 FPS (1024 spf)
Compression mode : Lossy
Stream size : 4.24 MiB (3%)
Encoded date : UTC 2017-10-12 20:05:44
Tagged date : UTC 2017-10-12 20:05:44
mdhd_Duration : 283469
Profil ShX
Xabarlarni ko‘rsatish:    

Hozirgi vaqt: 11-Dek 03:12

Vaqtlar farqi: UTC + 5



Siz mavzu yaratishingiz mumkin emas
Siz xabarlarga javob qaytarishingiz mumkin emas
Siz o‘z xabarlaringizni tahrirlashingiz mumkin emas
Siz o‘z xabarlaringizni o‘chirishingiz mumkin emas
Siz so‘rovlarda ovoz berishingiz mumkin emas
Siz xabalarga fayllarni biriktirishingiz mumkin emas
Siz fayllarni ko‘chirishingiz mumkin emas