Tarqatmalar statistikasi
Ko‘chirmoqdaman: [ 7 ]
Ko‘chirib bo‘ldim: [ 12 ]
 
     
 
 

Abdulloh ®

Jins:
Ko‘rsatilmagan
Staj:
9 oy 23 kun
Xabarlar:
38
Taqiq:

Tuzoqqa Xush Kelibsiz | Добро пожаловать в капкан / Welcome to the Punch
Chiqqan yili: 2013
Davlat: AQSH
Janr: Triller, drama, detektiv,jinoyatchilik , sarguzashtlar
Davomiyligi: 01:39:48
-Tarjima: Professional (dublyaj qilingan) O'zbek tilida
Tarjima haqida qo'shimcha ma'lumot: telekanalida dublaj qilingan
-Rejissiyor: Ehren Creevy-Rollarda: Jeyms MakAvoy, Mark Strong, Andrea Reisborough, Jonny Xarris, Daniel Mace, David Morrissey, Piter Mullan, Natasha Little, Doniyor Kaloy, Rut Shin-Tavsif:
Qadimgi jinoyatchi Yoqub Sternbud o'g'lining qaroqchilikka aralashib qolgan paytda uning boshpana joyidan Londonga qaytib kelishiga to'g'ri keladi. Detektiv Max Lewinsky har doim qochishga muvaffaq bo'lgan odamni qo'lga olish imkoniga ega. Muxoliflar yana kuchlarini o'lchashadi, lekin ular yanada chuqurroq jinoyat fitnasiga duch keladi, ular tirik qolish uchun kurashishlari kerak.
-Videoning sifati: HDRip
Format video: MKV

-Video: Xvid 720x304 23.976fps 1754kbps
Audio: MP3 48000Hz stereo 320kbps [uzb]

MediaInfo

General
Unique ID : 247686854322183375403847216114455590551 (0xBA56C0C1CA842CBEB22EF76243E8B697)
Complete name : D:\Kino\Tarjima Kinolar HD\Tuzoqqa xush kelibsiz.mkv
Format : Matroska
Format version : Version 4 / Version 2
File size : 1.45 GiB
Duration : 1 h 39 min
Overall bit rate : 2 077 kb/s
Encoded date : UTC 2018-02-16 17:25:34
Writing application : mkvmerge v7.5.0 ('Glass Culture') 64bit built on Jan 4 2015 16:48:44
Writing library : libebml v1.3.1 + libmatroska v1.4.2
Video
ID : 1
Format : MPEG-4 Visual
Format profile : Advanced Simple@L5
Format settings : BVOP2 / Custom Matrix
Format settings, BVOP : 2
Format settings, QPel : No
Format settings, GMC : No warppoints
Format settings, Matrix : Custom
Muxing mode : Packed bitstream
Codec ID : V_MS/VFW/FOURCC / XVID
Codec ID/Hint : XviD
Duration : 1 h 39 min
Bit rate : 1 755 kb/s
Width : 720 pixels
Height : 304 pixels
Display aspect ratio : 2.35:1
Frame rate mode : Constant
Frame rate : 23.976 (23976/1000) FPS
Color space : YUV
Chroma subsampling : 4:2:0
Bit depth : 8 bits
Scan type : Progressive
Compression mode : Lossy
Bits/(Pixel*Frame) : 0.334
Stream size : 1.22 GiB (85%)
Writing library : XviD 64
Default : Yes
Forced : No
Audio
ID : 2
Format : MPEG Audio
Format version : Version 1
Format profile : Layer 3
Format settings : Joint stereo
Codec ID : A_MPEG/L3
Codec ID/Hint : MP3
Duration : 1 h 39 min
Bit rate mode : Constant
Bit rate : 320 kb/s
Channel(s) : 2 channels
Sampling rate : 48.0 kHz
Frame rate : 41.667 FPS (1152 SPF)
Compression mode : Lossy
Stream size : 228 MiB (15%)
Title : O'zbek tilida @ A-Studio
Language : Uzbek
Default : Yes
Forced : Yes

Lavhalar

Profil ShX
Xabarlarni ko‘rsatish:    

Hozirgi vaqt: 23-Iyul 03:10

Vaqtlar farqi: UTC + 5



Siz mavzu yaratishingiz mumkin emas
Siz xabarlarga javob qaytarishingiz mumkin emas
Siz o‘z xabarlaringizni tahrirlashingiz mumkin emas
Siz o‘z xabarlaringizni o‘chirishingiz mumkin emas
Siz so‘rovlarda ovoz berishingiz mumkin emas
Siz xabalarga fayllarni biriktirishingiz mumkin emas
Siz fayllarni ko‘chirishingiz mumkin emas