˂
˃
Tarqatmalar statistikasi
Ko‘chiraman: [ 1 ]
Ko‘chirmoqdaman: [ 3 ]
Ko‘chirib bo‘ldim: [ 26 ]
 
     
 
 

Prince ®

Jins:
Yigit
Staj:
4 oy 24 kun
Xabarlar:
18

Qayerdan: Jizzakh CITY

Taqiq:

Uch kunda qochish / Три дня на побег / The Next Three Days-- Chiqqan yili: 2010
Davlat: AQSH, Fransiya
Janr: detektiv, drama, triller, jinoiy ish
Davomiyligi: 02:13:08 min
Tarjima 1: Professional dublyaj
Tarjima 2: To'liq dublyaj
Original 3: Original
Tarjima 4: To'liq dublyaj
Subtitrlar: Rus | Eng | Ukr--Rejissyor: : Pol Haggis--Rollarda: Rassell Crowe, Elizabeth Banks, Maykl Buie, Moran Atiyas, Remi Nozik, Toby Green, Tyler Green, Jeyson Beh, Aisha Hinds, Ti Kyean Simpkins.--Tavsif: Jonning hayoti, uning go'zal xotini qotillikda gumon qilinib hibsga olinmaguncha mukammal edi. Lara qamoqxonada bo'lsa-da, Jon faqat o'g'lini tarbiyalaydi va uning aybsizligini isbotlash uchun barcha yo'llar bilan harakat qiladi.
Ammo sevgilini ozod qilishning qonuniy yo'llari tugab qolsa, uni amalga oshirish uchun qoldirilgan yagona narsa - murakkab qochish rejasini ishlab chiqishdir. Jon hamma narsani xavf ostiga qo'yishga tayyor ... Ammo, agar u haqiqatan ham aybdor bo'lsa?...--Videoning sifati: BDRip-AVC
Video format: MKV
Video: 960x408 | ~1250 kbps | 23.976 fps
Audio: AAC | 48 kHz | 5.1 | 169 kbps
Audio 2: AAC | 48 kHz | 2.0 | 76 kbps
Audio 3: AAC | 48 kHz | 2.0 | 76 kbps
Audio 4: AAC | 48 kHz | 2.0 | 128 kbps --

Media Info

General
Unique ID : 283951917889115801818403974520270106471 (0xD59F266FC395D3758E595A083E2A2F67)
Complete name : D:\Install\Prince_OF_Jizzakh\Uch.kunda.qochish.BDrip.Rus.Ukr.Eng.Uzb.mkv
Format : Matroska
Format version : Version 4 / Version 2
File size : 1.58 GiB
Duration : 2 h 13 min
Overall bit rate : 1 703 kb/s
Encoded date : UTC 2018-11-20 03:54:42
Writing application : mkvmerge v26.0.0 ('In The Game') 64-bit
Writing library : libebml v1.3.6 + libmatroska v1.4.9
Video
ID : 1
Format : AVC
Format/Info : Advanced Video Codec
Format profile : High@L4.1
Format settings, CABAC : Yes
Format settings, ReFrames : 10 frames
Codec ID : V_MPEG4/ISO/AVC
Duration : 2 h 13 min
Bit rate : 1 250 kb/s
Width : 960 pixels
Height : 408 pixels
Display aspect ratio : 2.35:1
Frame rate mode : Constant
Frame rate : 23.976 (24000/1001) FPS
Color space : YUV
Chroma subsampling : 4:2:0
Bit depth : 8 bits
Scan type : Progressive
Bits/(Pixel*Frame) : 0.133
Stream size : 1.16 GiB (73%)
Title : Video
Writing library : x264 core 113 r1884 7313bb5
Encoding settings : cabac=1 / ref=10 / deblock=1:-2:-2 / analyse=0x3:0x113 / me=umh / subme=10 / psy=1 / psy_rd=1.00:0.05 / mixed_ref=1 / me_range=32 / chroma_me=1 / trellis=2 / 8x8dct=1 / cqm=0 / deadzone=21,11 / fast_pskip=0 / chroma_qp_offset=-3 / threads=3 / sliced_threads=0 / nr=0 / decimate=0 / interlaced=0 / constrained_intra=0 / bframes=10 / b_pyramid=2 / b_adapt=2 / b_bias=0 / direct=3 / weightb=1 / open_gop=0 / weightp=2 / keyint=250 / keyint_min=23 / scenecut=40 / intra_refresh=0 / rc_lookahead=60 / rc=2pass / mbtree=1 / bitrate=1250 / ratetol=1.0 / qcomp=0.70 / qpmin=0 / qpmax=69 / qpstep=4 / cplxblur=20.0 / qblur=0.5 / vbv_maxrate=50000 / vbv_bufsize=62500 / nal_hrd=none / ip_ratio=1.40 / aq=2:1.00 / zones=180455,191540,q=35
Language : English
Default : Yes
Forced : No
Color range : Limited
Matrix coefficients : BT.709
Audio #1
ID : 2
Format : AAC
Format/Info : Advanced Audio Codec
Format profile : HE-AAC / LC
Codec ID : A_AAC
Duration : 2 h 13 min
Bit rate : 169 kb/s
Channel(s) : 6 channels
Channel positions : Front: L C R, Side: L R, LFE
Sampling rate : 48.0 kHz / 24.0 kHz
Frame rate : 23.438 FPS (1024 spf)
Compression mode : Lossy
Stream size : 161 MiB (10%)
Title : Russian
Language : Russian
Default : No
Forced : No
Audio #2
ID : 3
Format : AAC
Format/Info : Advanced Audio Codec
Format profile : HE-AAC / LC
Codec ID : A_AAC
Duration : 2 h 13 min
Bit rate : 76.6 kb/s
Channel(s) : 2 channels
Channel positions : Front: L R
Sampling rate : 48.0 kHz / 24.0 kHz
Frame rate : 23.438 FPS (1024 spf)
Compression mode : Lossy
Stream size : 73.0 MiB (5%)
Title : Ukrainian
Language : Ukrainian
Default : No
Forced : No
Audio #3
ID : 4
Format : AAC
Format/Info : Advanced Audio Codec
Format profile : HE-AAC / LC
Codec ID : A_AAC
Duration : 2 h 13 min
Bit rate : 76.6 kb/s
Channel(s) : 2 channels
Channel positions : Front: L R
Sampling rate : 48.0 kHz / 24.0 kHz
Frame rate : 23.438 FPS (1024 spf)
Compression mode : Lossy
Stream size : 73.0 MiB (5%)
Title : English
Language : English
Default : No
Forced : No
Audio #4
ID : 9
Format : MPEG Audio
Format version : Version 1
Format profile : Layer 3
Mode : Joint stereo
Mode extension : MS Stereo
Codec ID : A_MPEG/L3
Codec ID/Hint : MP3
Duration : 2 h 13 min
Bit rate mode : Constant
Bit rate : 128 kb/s
Channel(s) : 2 channels
Sampling rate : 44.1 kHz
Frame rate : 38.281 FPS (1152 spf)
Compression mode : Lossy
Stream size : 122 MiB (8%)
Title : Prince306
Writing library : LAME3.99.5
Language : Uzbek
Default : Yes
Forced : Yes
Text #1
ID : 5
Format : UTF-8
Codec ID : S_TEXT/UTF8
Codec ID/Info : UTF-8 Plain Text
Duration : 2 h 6 min
Bit rate : 60 b/s
Count of elements : 1024
Stream size : 55.7 KiB (0%)
Title : Russian sub R5
Language : Russian
Default : No
Forced : No
Text #2
ID : 6
Format : UTF-8
Codec ID : S_TEXT/UTF8
Codec ID/Info : UTF-8 Plain Text
Duration : 2 h 5 min
Bit rate : 59 b/s
Count of elements : 999
Stream size : 54.9 KiB (0%)
Title : Russian sub Voronine
Language : Russian
Default : No
Forced : No
Text #3
ID : 7
Format : UTF-8
Codec ID : S_TEXT/UTF8
Codec ID/Info : UTF-8 Plain Text
Duration : 2 h 5 min
Bit rate : 54 b/s
Count of elements : 936
Stream size : 50.1 KiB (0%)
Title : Ukrainian sub
Language : Ukrainian
Default : No
Forced : No
Text #4
ID : 8
Format : UTF-8
Codec ID : S_TEXT/UTF8
Codec ID/Info : UTF-8 Plain Text
Duration : 2 h 8 min
Bit rate : 35 b/s
Count of elements : 1125
Stream size : 33.4 KiB (0%)
Title : English sub (SDH)
Language : English
Default : No
Forced : No
Profil ShX
Xabarlarni ko‘rsatish:    

Hozirgi vaqt: 11-Dek 02:41

Vaqtlar farqi: UTC + 5



Siz mavzu yaratishingiz mumkin emas
Siz xabarlarga javob qaytarishingiz mumkin emas
Siz o‘z xabarlaringizni tahrirlashingiz mumkin emas
Siz o‘z xabarlaringizni o‘chirishingiz mumkin emas
Siz so‘rovlarda ovoz berishingiz mumkin emas
Siz xabalarga fayllarni biriktirishingiz mumkin emas
Siz fayllarni ko‘chirishingiz mumkin emas