˂
˃
Tarqatmalar statistikasi
Ko‘chiraman: [ 1 ]
Ko‘chirib bo‘ldim: [ 1 ]
 
     
 
 

Javohir123 ®

Jins:
Yigit
Staj:
1 yil 1 oy
Xabarlar:
48
Taqiq:

Uddaburon Jamoa | Авантюристы | The Adventurers
--Davlat: Hong Kong,Fransiya,Xitoy
Janr: Jangari,Drama,Kriminal,Sarguzasht
Chiqqan yili: 2017
Davomiyligi: 01:47:13-Tarjima: Havaskor (dublyaj qilingan) O'zbek tilida
Rejissiyor: Stiven Foon-Rollarda: Andy Lau, Jean Reno, Shu Si, Toni Yang, Chjan Csino, Sha, Va David Bowles, Xan Vonsizin, Erik Da Kosta, Tereza Trnková, Daniel Svoboda-Описание: Mashhur o'g'ri zindondan ozod qilindi va Cannes film festivali davomida xalqaro Scam aniq tortish uchun tayyor bo'ladi.-Videoning sifati: WEBRip
Формат видео: MKV-Video: MPEG4 Video (H264) 1024x432 24fps
Audio: Dolby AC3 48000Hz stereo 192kbps Rus
Audio: MP3 44100Hz stereo 128kbps Uzb-

MediaInfo

General
Unique ID : 213007500054120283036563468709161383999 (0xA03FC094FC244A9487DF4226488CB83F)
Complete name :
Format : Matroska
Format version : Version 4 / Version 2
File size : 1.55 GiB
Duration : 1 h 47 min
Overall bit rate : 2 073 kb/s
Encoded date : UTC 2017-11-21 14:19:35
Writing application : mkvmerge v9.2.0 ('Photograph') 64bit
Writing library : libebml v1.3.3 + libmatroska v1.4.4
Video
ID : 1
Format : AVC
Format/Info : Advanced Video Codec
Format profile : High@L4.1
Format settings, CABAC : Yes
Format settings, RefFrames : 14 frames
Codec ID : V_MPEG4/ISO/AVC
Duration : 1 h 47 min
Bit rate : 1 751 kb/s
Width : 1 024 pixels
Height : 432 pixels
Display aspect ratio : 2.40:1
Frame rate mode : Constant
Frame rate : 24.000 FPS
Color space : YUV
Chroma subsampling : 4:2:0
Bit depth : 8 bits
Scan type : Progressive
Bits/(Pixel*Frame) : 0.165
Stream size : 1.31 GiB (84%)
Writing library : x264 core 152 r2851kMod ba24899
Encoding settings : cabac=1 / ref=14 / deblock=1:-2:-2 / analyse=0x3:0x113 / me=umh / subme=10 / psy=1 / fade_compensate=0.00 / psy_rd=1.00:0.00 / mixed_ref=1 / me_range=32 / chroma_me=1 / trellis=2 / 8x8dct=1 / cqm=0 / deadzone=21,11 / fast_pskip=0 / chroma_qp_offset=-2 / threads=13 / lookahead_threads=3 / sliced_threads=0 / nr=0 / decimate=0 / interlaced=0 / bluray_compat=0 / constrained_intra=0 / bframes=13 / b_pyramid=2 / b_adapt=2 / b_bias=0 / direct=1 / weightb=1 / open_gop=0 / weightp=2 / keyint=240 / keyint_min=24 / scenecut=40 / intra_refresh=0 / rc_lookahead=60 / rc=2pass / mbtree=0 / bitrate=1751 / ratetol=1.0 / qcomp=0.60 / qpmin=0 / qpmax=69 / qpstep=4 / cplxblur=20.0 / qblur=0.5 / vbv_maxrate=50000 / vbv_bufsize=62500 / nal_hrd=none / filler=0 / ip_ratio=1.40 / pb_ratio=1.30 / aq=1:1.00
Default : Yes
Forced : No
Audio #1
ID : 2
Format : AC-3
Format/Info : Audio Coding 3
Format settings, Endianness : Big
Codec ID : A_AC3
Duration : 1 h 47 min
Bit rate mode : Constant
Bit rate : 192 kb/s
Channel(s) : 2 channels
Channel positions : Front: L R
Sampling rate : 48.0 kHz
Frame rate : 31.250 FPS (1536 SPF)
Bit depth : 16 bits
Compression mode : Lossy
Stream size : 147 MiB (9%)
Title : @MUZOBOZ@
Language : Russian
Service kind : Complete Main
Default : Yes
Forced : No
Audio #2
ID : 3
Format : MPEG Audio
Format version : Version 1
Format profile : Layer 3
Mode : Joint stereo
Mode extension : MS Stereo
Codec ID : A_MPEG/L3
Codec ID/Hint : MP3
Duration : 1 h 47 min
Bit rate mode : Constant
Bit rate : 128 kb/s
Channel(s) : 2 channels
Sampling rate : 44.1 kHz
Frame rate : 38.281 FPS (1152 SPF)
Compression mode : Lossy
Stream size : 98.2 MiB (6%)
Title : Javohir
Language : Uzbek
Default : No
Forced : No


So‘ngi marta tahrirlandi: Javohir123 (2018-05-22 23:01), Jami tahrirlangan 1 marta
Profil ShX

Striker

Jins:
Yigit
Staj:
1 yil 3 oy
Xabarlar:
37
Taqiq:

zur kino

Mavzu yaratish 22-Noy-2017 22:02 (1 kun 1 soat o‘tgach)

Iqitibos

Profil ShX

UZTEXNO

Jins:
Yigit
Staj:
1 yil 2 oy
Xabarlar:
25
Taqiq:

Javohir123, Filmdagi yozuvlar subtitrmi ?

Mavzu yaratish 23-Noy-2017 08:45 (10 soat o‘tgach)

Iqitibos

Profil ShX

vuelta

Jins:
Yigit
Staj:
1 yil 3 oy
Xabarlar:
299
Taqiq:

1.5 gigalik kinolar kup yuklanayabdi a

Mavzu yaratish 23-Noy-2017 21:01 (12 soat o‘tgach)

Iqitibos

Profil ShX

vuelta

Jins:
Yigit
Staj:
1 yil 3 oy
Xabarlar:
299
Taqiq:

Kinoni Ovoziyam Sifatiyam zor chiqibdi

Mavzu yaratish 24-Noy-2017 10:48 (13 soat o‘tgach)

Iqitibos

Profil ShX

Javohir123 ®

Jins:
Yigit
Staj:
1 yil 1 oy
Xabarlar:
48
Taqiq:

Katta rahmat

Mavzu yaratish 24-Noy-2017 13:03 (2 soat 14 daqiqa o‘tgach)

Iqitibos

Profil ShX

mister8999

Jins:
Ko‘rsatilmagan
Staj:
1 yil 1 oy
Xabarlar:
1
Taqiq:

Salom menga filmni ko'chirib olishimga yordam beringlar. IP beringlar iltimos

Mavzu yaratish 15-Apr-2018 06:59 (4 oy 20 kun o‘tgach)

Iqitibos

Profil ShX

vuelta

Jins:
Yigit
Staj:
1 yil 3 oy
Xabarlar:
299
Taqiq:

10.13.214.167

Mavzu yaratish 15-Apr-2018 18:02 (11 soat o‘tgach)

Iqitibos

Profil ShX

Soft-Release

Jins:
Yigit
Staj:
8 oy 7 kun
Xabarlar:
728

Qayerdan: Kattakurgan

Taqiq:

Muallif razdachadan qochibdida shuning uchun ham to'xtab qolgan! Qolganlarga ulanish qiyin bo'layabdi shuning uchun ham! Bunday qilmash kerak! Foydalnuvchuilar ham muallif ham o'z asablarini saqlashlarki kerak! Bo'lmasa o'rtada nizo chiqishi mumkin!

Mavzu yaratish 15-Apr-2018 18:15 (12 daqiqa o‘tgach)

Iqitibos

Profil ShX
Xabarlarni ko‘rsatish:    

Hozirgi vaqt: 21-Noy 18:33

Vaqtlar farqi: UTC + 5



Siz mavzu yaratishingiz mumkin emas
Siz xabarlarga javob qaytarishingiz mumkin emas
Siz o‘z xabarlaringizni tahrirlashingiz mumkin emas
Siz o‘z xabarlaringizni o‘chirishingiz mumkin emas
Siz so‘rovlarda ovoz berishingiz mumkin emas
Siz xabalarga fayllarni biriktirishingiz mumkin emas
Siz fayllarni ko‘chirishingiz mumkin emas